(Pop-Music) Laura Branigan - The Platinum Collection - 2006, FLAC (image+.cue), lossless

 

Создавать темы 05-Июл-2014 09:19

--Laura Branigan - The Platinum Collection-- Жанр: Pop-Music
Год выпуска диска: 2006
Производитель диска: England - Warner Music
Аудио кодек: FLAC
Тип рипа: image+.cue
Битрейт аудио: lossless
Продолжительность: 01:15:02
Трэклист:
01. Gloria 4:52
02. Self Control 4:07
03. The Lucky One 4:11
04. Solitaire 4:06
05. Power Of Love 5:26
06. How Am I Supposed To Live Without You 4:27
07. Ti Amo 4:15
08. I Found Someone 4:01
09. Will You Still Love Me Tomorrow 3:21
10. Spanish Eddie 4:08
11. All Night With Me 3:52
12. Lovin' You Baby 4:30
13. Shattered Glass 3:42
14. Never In A Million Years 4:10
15. Moonlight On Water 4:39
16. Satisfaction 3:54
17. If You Loved Me 3:16
18. Silent Partners 4:06

Back

Отчёт EAC

Exact Audio Copy V0.99 prebeta 5 from 4. May 2009
Отчёт EAC об извлечении, выполненном 28. ноября 2009, 11:16
Laura Branigan / The Platinum Collection
Дисковод: PIONEER DVD-RW DVR-107D Adapter: 3 ID: 0
Режим чтения : Достоверность
Использование точного потока : Да
Отключение кэша аудио : Да
Использование указателей C2 : Нет
Коррекция смещения при чтении : 48
Способность читать области Lead-in и Lead-out : Нет
Заполнение пропущенных сэмплов тишиной : Да
Удаление блоков с тишиной в начале и конце : Нет
При вычислениях CRC использовались нулевые сэмплы : Да
Интерфейс : Установленный внешний ASPI-интерфейс
Выходной формат : Внутренние WAV-операции
Формат сэмплов : 44.100 Гц; 16 бит; стерео
TOC извлечённого CD
Трек | Старт | Длительность | Начальный сектор | Конечный сектор
---------------------------------------------------------------------
1 | 0:00.00 | 4:51.72 | 0 | 21896
2 | 4:51.72 | 4:06.67 | 21897 | 40413
3 | 8:58.64 | 4:10.74 | 40414 | 59237
4 | 13:09.63 | 4:05.71 | 59238 | 77683
5 | 17:15.59 | 5:26.00 | 77684 | 102133
6 | 22:41.59 | 4:26.49 | 102134 | 122132
7 | 27:08.33 | 4:15.30 | 122133 | 141287
8 | 31:23.63 | 4:00.73 | 141288 | 159360
9 | 35:24.61 | 3:21.26 | 159361 | 174461
10 | 38:46.12 | 4:07.51 | 174462 | 193037
11 | 42:53.63 | 3:52.07 | 193038 | 210444
12 | 46:45.70 | 4:29.64 | 210445 | 230683
13 | 51:15.59 | 3:41.52 | 230684 | 247310
14 | 54:57.36 | 4:09.69 | 247311 | 266054
15 | 59:07.30 | 4:39.26 | 266055 | 287005
16 | 63:46.56 | 3:53.40 | 287006 | 304520
17 | 67:40.21 | 3:15.48 | 304521 | 319193
18 | 70:55.69 | 4:06.24 | 319194 | 337667
Характеристики диапазона извлечения и сообщения об ошибках
Выбранный диапазон
Имя файла I:\Laura Branigan - The Platinum Collection\Laura Branigan - The Platinum Collection.wav
Пиковый уровень 98.8 %
Качество диапазона 100.0 %
CRC теста 708CCC4D
CRC копии 708CCC4D
Копирование... OK
Ошибок не произошло
AccurateRip: сводка
Трек 1 точное извлечение (доверие 10) [316D20C3]
Трек 2 точное извлечение (доверие 11) [64D67125]
Трек 3 точное извлечение (доверие 10) [CB933C6C]
Трек 4 точное извлечение (доверие 10) [11BE9AB4]
Трек 5 точное извлечение (доверие 10) [544CDDBD]
Трек 6 точное извлечение (доверие 10) [EF9F2C22]
Трек 7 точное извлечение (доверие 10) [5DF67466]
Трек 8 точное извлечение (доверие 10) [93E8CAA2]
Трек 9 точное извлечение (доверие 10) [CCE0FCE7]
Трек 10 точное извлечение (доверие 10) [944340DE]
Трек 11 точное извлечение (доверие 10) [E085E4F2]
Трек 12 точное извлечение (доверие 10) [6A5AE546]
Трек 13 точное извлечение (доверие 10) [B39A6840]
Трек 14 точное извлечение (доверие 10) [41740188]
Трек 15 точное извлечение (доверие 9) [B7646CF9]
Трек 16 точное извлечение (доверие 9) [0DC590B9]
Трек 17 точное извлечение (доверие 9) [76949B45]
Трек 18 точное извлечение (доверие 10) [6C0FC2BB]
Все треки извлечены точно
Конец отчёта
Яндекс.Метрика
Рейтинг@Mail.ru