Рыцари королевства Крутизны / Knights of Badassdom (Джо Линч / Joe Lynch) [2012 г., комедия, фэнтези, ужасы, BDRip-AVC] MVO [ViruseProject] + Original (Eng) + Sub (Rus, Eng) [Jolly Roger]

 

Создавать темы 05-Июл-2014 02:11

-Рыцари королевства Крутизны / Knights of Badassdom- Год выпуска: 2012 г.
Производство: США
Жанр: комедия, фэнтези, ужасы
Продолжительность: 01:25:27
Перевод: Любительский (многоголосый, закадровый) [ViruseProject]
Оригинальный аудиопоток: английский
Режиссер: Джо Линч / Joe Lynch
В ролях: Райан Квантен, Стив Зан, Питер Динклэйдж, Саммер Глау, Маргарита Левиева, Том Хоппер, Джимми Симпсон, Дэнни Пуди, Джошуа Малина, У. Эрл Браун
Описание: Джо бросает девушка, и поэтому его друзья, повернутые на ролевых играх Эрик и Ханг, предлагают пыхнуть кальянчика и расслабиться. В итоге Джо просыпается в грузовике, одетый в рыцаря, в эпицентре ролевой игры. Друзья уговаривают его провести этот ролевой день с ними, чтобы Джо забыл свою девушку. Далее Эрик, сам того не зная, вызывает демона при помощи книги, купленной в интернете, и теперь друзьям нужно победить этого демона, спасти целое поле народа и самим не погибнуть…Качество видео: BDRip-AVC
Контейнер: MKV
Видео кодек: H.264
Аудио кодек: AC3
Видео: MPEG4 Video (H264) 1056x440 23.976fps 1973 Kbps
Аудио: Dolby AC3 48000Hz stereo 224kbps / Русский / Английский
Субтитры: русские, английские [полные отключаемые]

Media Info / x.264

Log 2-nd pass

x264 [info]: using SAR=1/1
x264 [info]: using cpu capabilities: MMX2 SSE2Fast SSSE3 Cache64 SlowShuffle
x264 [info]: profile Main, level 4.1
x264 [info]: frame I:1338 Avg QP:13.52 size: 69665
x264 [info]: frame P:33531 Avg QP:16.85 size: 20977
x264 [info]: frame B:88060 Avg QP:19.99 size: 5308
x264 [info]: consecutive B-frames: 5.1% 5.2% 14.7% 34.1% 16.2% 19.8% 3.0% 1.8%
x264 [info]: mb I I16..4: 21.2% 0.0% 78.8%
x264 [info]: mb P I16..4: 20.1% 0.0% 0.0% P16..4: 37.0% 23.2% 9.5% 0.0% 0.0% skip:10.2%
x264 [info]: mb B I16..4: 2.3% 0.0% 0.0% B16..8: 29.4% 10.1% 2.2% direct: 4.9% skip:51.1% L0:38.9% L1:42.4% BI:18.8%
x264 [info]: direct mvs spatial:97.0% temporal:3.0%
x264 [info]: coded y,uvDC,uvAC intra: 52.7% 59.0% 26.9% inter: 19.7% 16.1% 2.4%
x264 [info]: i16 v,h,dc,p: 29% 21% 24% 26%
x264 [info]: i4 v,h,dc,ddl,ddr,vr,hd,vl,hu: 25% 15% 13% 6% 8% 8% 7% 8% 9%
x264 [info]: i8c dc,h,v,p: 34% 30% 21% 15%
x264 [info]: Weighted P-Frames: Y:5.2% UV:2.3%
x264 [info]: ref P L0: 55.6% 14.6% 15.4% 7.3% 5.7% 1.3% 0.0%
x264 [info]: ref B L0: 84.3% 10.7% 3.7% 1.3%
x264 [info]: ref B L1: 94.5% 5.5%
x264 [info]: kb/s:1972.23
x264 [total]: encoded 122929 frames, 1.90 fps, 1972.23 kb/s
General
Unique ID : 239428017191951893119264038708165031797 (0xB42028A6097B9BAA960E9BF331BD3775)
Complete name : I:\Ricari.korolevstva.krutizni.2014.H.264.BDRip-AVC.JRG.mkv
Format : Matroska
Format version : Version 4 / Version 2
File size : 1.45 GiB
Duration : 1h 25mn
Overall bit rate : 2 423 Kbps
Movie name : The Jolly Roger Release Group by
Encoded date : UTC 2014-07-04 15:00:31
Writing application : mkvmerge v6.9.1 ('Blue Panther') 32bit built on Apr 18 2014 18:15:44
Writing library : libebml v1.3.0 + libmatroska v1.4.1
Video
ID : 1
Format : AVC
Format/Info : Advanced Video Codec
Format profile : [email protected]
Format settings, CABAC : Yes
Format settings, ReFrames : 5 frames
Codec ID : V_MPEG4/ISO/AVC
Duration : 1h 25mn
Bit rate : 1 973 Kbps
Width : 1 056 pixels
Height : 440 pixels
Display aspect ratio : 2.40:1
Frame rate mode : Constant
Frame rate : 23.976 fps
Color space : YUV
Chroma subsampling : 4:2:0
Bit depth : 8 bits
Scan type : Progressive
Bits/(Pixel*Frame) : 0.177
Stream size : 1.15 GiB (80%)
Writing library : x264 core 130 r2273 b3065e6
Encoding settings : cabac=1 / ref=5 / deblock=0:0:0 / analyse=0x1:0x110 / me=umh / subme=9 / psy=0 / mixed_ref=1 / me_range=32 / chroma_me=1 / trellis=2 / 8x8dct=0 / cqm=0 / deadzone=21,11 / fast_pskip=0 / chroma_qp_offset=0 / threads=3 / lookahead_threads=1 / sliced_threads=0 / nr=0 / decimate=1 / interlaced=0 / bluray_compat=0 / constrained_intra=0 / bframes=7 / b_pyramid=2 / b_adapt=2 / b_bias=0 / direct=3 / weightb=1 / open_gop=0 / weightp=2 / keyint=250 / keyint_min=23 / scenecut=40 / intra_refresh=0 / rc_lookahead=50 / rc=2pass / mbtree=1 / bitrate=1973 / ratetol=1.0 / qcomp=0.60 / qpmin=0 / qpmax=69 / qpstep=4 / cplxblur=20.0 / qblur=0.5 / ip_ratio=1.40 / aq=1:1.00
Language : English
Default : Yes
Forced : No
Audio #1
ID : 2
Format : AC-3
Format/Info : Audio Coding 3
Mode extension : CM (complete main)
Format settings, Endianness : Big
Codec ID : A_AC3
Duration : 1h 25mn
Bit rate mode : Constant
Bit rate : 224 Kbps
Channel(s) : 2 channels
Channel positions : Front: L R
Sampling rate : 48.0 KHz
Bit depth : 16 bits
Compression mode : Lossy
Stream size : 137 MiB (9%)
Language : Russian
Default : Yes
Forced : No
Audio #2
ID : 3
Format : AC-3
Format/Info : Audio Coding 3
Mode extension : CM (complete main)
Format settings, Endianness : Big
Codec ID : A_AC3
Duration : 1h 25mn
Bit rate mode : Constant
Bit rate : 224 Kbps
Channel(s) : 2 channels
Channel positions : Front: L R
Sampling rate : 48.0 KHz
Bit depth : 16 bits
Compression mode : Lossy
Stream size : 137 MiB (9%)
Language : English
Default : No
Forced : No
Text #1
ID : 4
Format : UTF-8
Codec ID : S_TEXT/UTF8
Codec ID/Info : UTF-8 Plain Text
Language : Russian
Default : No
Forced : No
Text #2
ID : 5
Format : UTF-8
Codec ID : S_TEXT/UTF8
Codec ID/Info : UTF-8 Plain Text
Language : English
Default : No
Forced : No

Скриншоты

Яндекс.Метрика
Рейтинг@Mail.ru