Глория / Gloria (Себастьян Лелио) [2013, драма, комедия, BDRip 720p][Online Movies]

 

Создавать темы 04-Июл-2014 21:33

Глория / Gloria--

  • Год выпуска: 2013
  • Страна: Чили, Испания
  • Жанр: драма, комедия
  • Продолжительность: 01:49:06
  • Перевод: Профессиональный многоголосый [Online Movies]
  • Субтитры: Русские, английские
  • В ролях: Паулина Гарсиа, Серхио Эрнандес, Диего Фонтесилла, Фабиола Самора, Лус Хименес, Алехандро Гойк, Лилиана Гарсия, Кока Гуаццини, Хьюго Морага, Кристиан Карвахаль
  • Режиссёр: Себастьян Лелио

    58-летняя разведенная женщина начинает скучать, когда ее дети покидают дом. Не смотря на свой возраст, она верит, что у нее все впереди, и не хочет тратить драгоценные минуты, оставаясь в одиночестве. Глория бросает вызов старости и сама бросается в водоворот одноразовых удовлетворений. Это приводит лишь к разочарованию и пустоте. Но вскоре на ее пути встречается бывший морской офицер 65 лет. Родольфо начинает проявлять к Глории свои романтические чувства. У них даже завязываются отношения, но на пути к счастью женщине приходится бороться с собой и своими прошлыми тайнами.--
  • Качество: BDRip 720p
  • Формат: MKV
  • Видео кодек: AVC
  • Аудио кодек: AC3
  • Видео: AVC, 1280x538, 4965 Кбит/сек, 24.000 кадр/сек
  • Аудио: АС3, 224 Кбит/сек, 2 канала(ов), 48,0 КГц - Русский
  • Аудио: АС3, 640 Кбит/сек, 6 канала(ов), 48,0 КГц - Испанский
-

MediaInfo:

General
Unique ID                      : 245902164062052196687882664669347044272 (0xB8FF08BBCE0371AE86C24B15A413DBB0)
Complete name                  : C:\Users\SQS\Desktop\Gloria.2013.BDRip.720p.mkv
Format                         : Matroska
Format version                 : Version 4 / Version 2
File size                      : 4.53 GiB
Duration                       : 1h 49mn
Overall bit rate               : 5 947 Kbps
Movie name                     : Release Group CINEMANIA
Encoded date                   : UTC 2014-05-19 14:10:12
Writing application            : mkvmerge v6.9.1 ('Blue Panther') 64bit built on Apr 18 2014 18:23:38
Writing library                : libebml v1.3.0 + libmatroska v1.4.1
Video
ID                             : 1
Format                         : AVC
Format/Info                    : Advanced Video Codec
Format profile                 : [email protected]
Format settings, CABAC         : Yes
Format settings, ReFrames      : 12 frames
Codec ID                       : V_MPEG4/ISO/AVC
Duration                       : 1h 49mn
Bit rate                       : 4 965 Kbps
Width                          : 1 280 pixels
Height                         : 538 pixels
Display aspect ratio           : 2.40:1
Frame rate mode                : Constant
Frame rate                     : 24.000 fps
Color space                    : YUV
Chroma subsampling             : 4:2:0
Bit depth                      : 8 bits
Scan type                      : Progressive
Bits/(Pixel*Frame)             : 0.300
Stream size                    : 3.78 GiB (83%)
Title                          : Release Group CINEMANIA
Writing library                : x264 core 142 r2389kMod 956c8d8
Encoding settings              : cabac=1 / ref=12 / deblock=1:-3:-3 / analyse=0x3:0x133 / me=tesa / subme=11 / psy=1 / fade_compensate=0.00 / psy_rd=1.00:0.00 / mixed_ref=1 / me_range=24 / chroma_me=1 / trellis=2 / 8x8dct=1 / cqm=0 / deadzone=21,11 / fast_pskip=0 / chroma_qp_offset=-2 / threads=12 / lookahead_threads=2 / sliced_threads=0 / nr=0 / decimate=1 / interlaced=0 / bluray_compat=0 / constrained_intra=0 / fgo=0 / bframes=9 / b_pyramid=2 / b_adapt=2 / b_bias=0 / direct=3 / weightb=1 / open_gop=0 / weightp=2 / keyint=250 / keyint_min=24 / scenecut=40 / intra_refresh=0 / rc=crf / mbtree=0 / crf=15.9000 / qcomp=0.65 / qpmin=0 / qpmax=69 / qpstep=4 / ip_ratio=1.30 / pb_ratio=1.20 / aq=1:0.85
Language                       : English
Default                        : Yes
Forced                         : No
Matrix coefficients            : BT.709
Audio #1
ID                             : 2
Format                         : AC-3
Format/Info                    : Audio Coding 3
Mode extension                 : CM (complete main)
Format settings, Endianness    : Big
Codec ID                       : A_AC3
Duration                       : 1h 49mn
Bit rate mode                  : Constant
Bit rate                       : 224 Kbps
Channel(s)                     : 2 channels
Channel positions              : Front: L R
Sampling rate                  : 48.0 KHz
Bit depth                      : 16 bits
Compression mode               : Lossy
Stream size                    : 175 MiB (4%)
Title                          : online movies
Language                       : Russian
Default                        : Yes
Forced                         : Yes
Audio #2
ID                             : 3
Format                         : AC-3
Format/Info                    : Audio Coding 3
Mode extension                 : CM (complete main)
Format settings, Endianness    : Big
Codec ID                       : A_AC3
Duration                       : 1h 49mn
Bit rate mode                  : Constant
Bit rate                       : 640 Kbps
Channel(s)                     : 6 channels
Channel positions              : Front: L C R, Side: L R, LFE
Sampling rate                  : 48.0 KHz
Bit depth                      : 16 bits
Compression mode               : Lossy
Stream size                    : 499 MiB (11%)
Language                       : Spanish
Default                        : No
Forced                         : No
Text #1
ID                             : 4
Format                         : UTF-8
Codec ID                       : S_TEXT/UTF8
Codec ID/Info                  : UTF-8 Plain Text
Title                          : creo140
Language                       : Russian
Default                        : No
Forced                         : No
Text #2
ID                             : 5
Format                         : UTF-8
Codec ID                       : S_TEXT/UTF8
Codec ID/Info                  : UTF-8 Plain Text
Language                       : English
Default                        : No
Forced                         : No
Menu
00:00:00.000                   : en:00:00:00.000
00:09:55.417                   : en:00:09:55.417
00:19:06.417                   : en:00:19:06.417
00:28:06.417                   : en:00:28:06.417
00:32:23.000                   : en:00:32:23.000
00:40:45.417                   : en:00:40:45.417
00:54:33.000                   : en:00:54:33.000
01:01:38.417                   : en:01:01:38.417
01:09:18.417                   : en:01:09:18.417
01:19:32.417                   : en:01:19:32.417
01:25:14.417                   : en:01:25:14.417
01:35:03.417                   : en:01:35:03.417

Скриншоты:

Яндекс.Метрика
Рейтинг@Mail.ru