Тур де Шанс / La grande boucle (Лоран Тюэль) [2013, комедия, спорт, BDRip 720p] MVO

 

Создавать темы 04-Июл-2014 21:24

Тур де Шанс / La grande boucle--

  • Год выпуска: 2013
  • Страна: Франция
  • Жанр: комедия, спорт
  • Продолжительность: 01:37:21
  • Перевод: Профессиональный многоголосый
  • Субтитры: Нет
  • В ролях: Кловис Корнийяк, Були Ланнерс, Эри Абиттан, Бруно Лоше, Элоди Буше, Андре Маркон, Rose Caprais, Annick Christiaens, Paul GRANIER, Дуду Маста
  • Режиссёр: Лоран Тюэль

    От Франсуа уходит жена, считая его трусом и неудачником. Практически по той же причине босс его увольняет. Будучи большим фанатом Тур де Франс, Франсуа решает исполнить детскую мечту и отправляется по маршруту знаменитой велогонки за день до официального начала соревнований. Вдохновленные его вызовом брошенным официальному спорту, вскоре к нему присоединяются и другие любители. Теперь Франсуа готов соперничать в популярности с самим Тони Агнело, своим кумиром и фаворитом гонки.--
  • Качество: BDRip 720p
  • Формат: MKV
  • Видео кодек: AVC
  • Аудио кодек: AC3,DTS
  • Видео: AVC, 1280x544, 4910 Кбит/сек, 23.976 кадр/сек
  • Аудио: АС3, 192 Кбит/сек, 2 канала(ов), 48,0 КГц - Русский
  • Аудио: DTS, 1509 Кбит/сек, 6 канала(ов), 48,0 КГц - Французский
--

MediaInfo:

General
Unique ID                      : 218499738847455930785060135714222579476 (0xA46184DC71B32C8B9155741B56711F14)
Complete name                  : C:\Users\SQS\Desktop\Tur.de.shans.2013.BDRip.720p.mkv
Format                         : Matroska
Format version                 : Version 2
File size                      : 4.50 GiB
Duration                       : 1h 37mn
Overall bit rate               : 6 611 Kbps
Encoded date                   : UTC 2014-05-18 20:27:26
Writing application            : mkvmerge v6.9.1 ('Blue Panther') 64bit built on Apr 18 2014 18:23:38
Writing library                : libebml v1.3.0 + libmatroska v1.4.1
Video
ID                             : 1
Format                         : AVC
Format/Info                    : Advanced Video Codec
Format profile                 : [email protected]
Format settings, CABAC         : Yes
Format settings, ReFrames      : 5 frames
Codec ID                       : V_MPEG4/ISO/AVC
Duration                       : 1h 37mn
Bit rate                       : 4 910 Kbps
Width                          : 1 280 pixels
Height                         : 544 pixels
Display aspect ratio           : 2.35:1
Frame rate mode                : Constant
Frame rate                     : 23.976 fps
Color space                    : YUV
Chroma subsampling             : 4:2:0
Bit depth                      : 8 bits
Scan type                      : Progressive
Bits/(Pixel*Frame)             : 0.294
Stream size                    : 3.25 GiB (72%)
Title                          : ZEST - La Grande Boucle - 720p
Writing library                : x264 core 140 r2377 1ca7bb9
Encoding settings              : cabac=1 / ref=5 / deblock=1:0:0 / analyse=0x3:0x133 / me=umh / subme=7 / psy=1 / psy_rd=1.00:0.00 / mixed_ref=1 / me_range=16 / chroma_me=1 / trellis=1 / 8x8dct=1 / cqm=0 / deadzone=21,11 / fast_pskip=0 / chroma_qp_offset=-2 / threads=12 / lookahead_threads=2 / sliced_threads=0 / nr=0 / decimate=1 / interlaced=0 / bluray_compat=0 / constrained_intra=0 / bframes=3 / b_pyramid=2 / b_adapt=1 / b_bias=0 / direct=1 / weightb=1 / open_gop=0 / weightp=2 / keyint=240 / keyint_min=23 / scenecut=40 / intra_refresh=0 / rc_lookahead=40 / rc=2pass / mbtree=1 / bitrate=4910 / ratetol=1.0 / qcomp=0.60 / qpmin=0 / qpmax=69 / qpstep=4 / cplxblur=20.0 / qblur=0.5 / ip_ratio=1.40 / aq=1:1.00
Default                        : Yes
Forced                         : No
Audio #1
ID                             : 2
Format                         : AC-3
Format/Info                    : Audio Coding 3
Mode extension                 : CM (complete main)
Format settings, Endianness    : Big
Codec ID                       : A_AC3
Duration                       : 1h 37mn
Bit rate mode                  : Constant
Bit rate                       : 192 Kbps
Channel(s)                     : 2 channels
Channel positions              : Front: L R
Sampling rate                  : 48.0 KHz
Bit depth                      : 16 bits
Compression mode               : Lossy
Stream size                    : 134 MiB (3%)
Language                       : Russian
Default                        : No
Forced                         : No
Audio #2
ID                             : 3
Format                         : DTS
Format/Info                    : Digital Theater Systems
Mode                           : 16
Format settings, Endianness    : Big
Codec ID                       : A_DTS
Duration                       : 1h 37mn
Bit rate mode                  : Constant
Bit rate                       : 1 509 Kbps
Channel(s)                     : 6 channels
Channel positions              : Front: L C R, Side: L R, LFE
Sampling rate                  : 48.0 KHz
Bit depth                      : 24 bits
Compression mode               : Lossy
Stream size                    : 1.03 GiB (23%)
Title                          : FR-DTS 1509Kbps
Language                       : French
Default                        : No
Forced                         : No
Menu
00:00:00.000                   : en:00:00:00.000
00:13:24.637                   : en:00:13:24.637
00:18:54.342                   : en:00:18:54.342
00:25:28.193                   : en:00:25:28.193
00:34:26.356                   : en:00:34:26.356
00:43:39.575                   : en:00:43:39.575
00:51:25.582                   : en:00:51:25.582
01:02:49.891                   : en:01:02:49.891
01:09:09.771                   : en:01:09:09.771
01:17:09.959                   : en:01:17:09.959
01:25:29.333                   : en:01:25:29.333
01:33:10.585                   : en:01:33:10.585

Скриншоты:

Яндекс.Метрика
Рейтинг@Mail.ru