[ Сегодня на трекере фрилич! Идет свободное скачивание без начисления Download ]

Превосходство / Transcendence (Уолли Пфистер / Uolli Pfister) [2014 г., фантастика, триллер, драма, детектив, WEB-DLRip-AVC] AVO [Д. Есарев]

 

Создавать темы 04-Июл-2014 21:16

Превосходство / Transcendence«What if a new intelligence was born?»- Год выхода: 2014
Страна: Великобритания, Китай, США
Жанр: фантастика, триллер, драма, детектив
Продолжительность: 01:56:00
Перевод: Авторское (одноголосное) [Д. Есарев]
Субтитры: English
Режиссер: Уолли Пфистер
В ролях: Джонни Депп, Ребекка Холл, Пол Беттани, Киллиан Мёрфи, Кейт Мара, Коул Хаузер, Морган Фриман, Клифтон Коллинз мл., Кори Хардрикт, Фальк Хеншел
О фильме: Выдающийся исследователь в области изучения искусственного интеллекта Доктор Уилл Кастер работает над созданием компьютера, который сможет собрать в себе все знания и опыт, накопленные человечеством. Достаточно спорные эксперименты, проводимые Уиллом, прославили его, и в то же время сделали основной целью радикальной анти-технологической группировки. Экстремисты делают все возможное, чтобы остановить его.
Однако в своих попытках уничтожить Уилла они добиваются обратного и становятся невольными участниками становления его абсолютного превосходства. Для его жены Эвелин и лучшего друга Макса Вотерса, тоже ученых-исследователей, встает вопрос должны ли они продолжать этот эксперимент. Их худшие опасения претворяются в жизнь, когда жажда знаний Уилла переходит в неконтролируемую жажду власти…

Качество: WEB-DLRip-AVC
Формат: MKV
Видео кодек: AVC
Аудио кодек: AC3
Видео: 1024x424, 23.976 fps, 1727 Kbps
Аудио #1: AC3, 448 kb/s (6 ch) [Russian]
Аудио #2: AC3, 448 kb/s (6 ch) [English]

MediaInfo :

Format version : Version 2
File size : 2.18 GiB
Duration : 1h 59mn
Overall bit rate : 2 620 Kbps
Encoded date : UTC 2014-07-04 08:59:01
Writing application : mkvmerge v2.9.7 ('Tenderness') built on Jul 1 2009 18:43:35
Writing library : libebml v0.7.7 + libmatroska v0.8.1
Video
ID : 1
Format : AVC
Format/Info : Advanced Video Codec
Format profile : [email protected]
Format settings, CABAC : Yes
Format settings, ReFrames : 7 frames
Codec ID : V_MPEG4/ISO/AVC
Duration : 1h 59mn
Bit rate : 1 727 Kbps
Width : 1 024 pixels
Height : 424 pixels
Display aspect ratio : 2.40:1
Frame rate : 23.976 fps
Color space : YUV
Chroma subsampling : 4:2:0
Bit depth : 8 bits
Scan type : Progressive
Bits/(Pixel*Frame) : 0.166
Stream size : 1.39 GiB (64%)
Title : Rip by mihaildns
Writing library : x264 core 125 r2208 d9d2288
Encoding settings : cabac=1 / ref=7 / deblock=1:-3:-3 / analyse=0x3:0x111 / me=umh / subme=9 / psy=1 / psy_rd=1.00:0.00 / mixed_ref=1 / me_range=24 / chroma_me=1 / trellis=2 / 8x8dct=1 / cqm=0 / deadzone=21,11 / fast_pskip=0 / chroma_qp_offset=-2 / threads=3 / lookahead_threads=1 / sliced_threads=0 / nr=0 / decimate=1 / interlaced=0 / bluray_compat=0 / constrained_intra=0 / bframes=9 / b_pyramid=2 / b_adapt=2 / b_bias=0 / direct=3 / weightb=1 / open_gop=0 / weightp=2 / keyint=250 / keyint_min=23 / scenecut=40 / intra_refresh=0 / rc_lookahead=50 / rc=2pass / mbtree=1 / bitrate=1727 / ratetol=1.0 / qcomp=0.60 / qpmin=0 / qpmax=69 / qpstep=4 / cplxblur=20.0 / qblur=0.5 / ip_ratio=1.40 / aq=1:1.10
Language : English
Default : Yes
Forced : No
Audio #1
ID : 2
Format : AC-3
Format/Info : Audio Coding 3
Mode extension : CM (complete main)
Format settings, Endianness : Big
Codec ID : A_AC3
Duration : 1h 59mn
Bit rate mode : Constant
Bit rate : 448 Kbps
Channel(s) : 6 channels
Channel positions : Front: L C R, Side: L R, LFE
Sampling rate : 48.0 KHz
Bit depth : 16 bits
Compression mode : Lossy
Stream size : 382 MiB (17%)
Title : Есарев
Language : Russian
Default : Yes
Forced : No
Audio #2
ID : 3
Format : AC-3
Format/Info : Audio Coding 3
Mode extension : CM (complete main)
Format settings, Endianness : Big
Codec ID : A_AC3
Duration : 1h 59mn
Bit rate mode : Constant
Bit rate : 448 Kbps
Channel(s) : 6 channels
Channel positions : Front: L C R, Side: L R, LFE
Sampling rate : 48.0 KHz
Bit depth : 16 bits
Compression mode : Lossy
Stream size : 382 MiB (17%)
Language : English
Default : No
Forced : No
Text
ID : 4
Format : UTF-8
Codec ID : S_TEXT/UTF8
Codec ID/Info : UTF-8 Plain Text
Language : English
Default : Yes
Forced : No

Доп. информация :

Бюджет: $100 000 000
Сборы в США: $23 022 309
Сборы в мире: + $67 000 000 = $90 022 309
Дата мировой премьеры: 10 апреля 2014
Дата российской премьеры: 10 июля 2014, «West»

Скриншоты:

Яндекс.Метрика
Рейтинг@Mail.ru