Я, Франкенштейн / I, Frankenstein (Стюарт Битти / Stuart Beattie) [2014 г., Фэнтези, боевик, приключения, BDRip] AVO (Гаврилов)

 

Создавать темы 04-Июл-2014 16:04

-Я, Франкенштейн / I, Frankenstein-- Год выпуска: 2014
Производство: США, Австралия, Lakeshore Entertainment
Жанр: Фэнтези, боевик, приключения
Продолжительность: 01:32:24-Перевод: Авторский (одноголосый, закадровый) Гаврилов-Режиссер: Стюарт Битти / Stuart Beattie
В ролях: Аарон Экхарт, Ивонн Страховски, Миранда Отто, Билл Найи, Джай Кортни, Сократис Отто, Аден Янг, Кэйтлин Стэйси, Махеш Джаду, Стив Музакис-Описание: Он — монстр. Он — двухсотлетний плод безумной фантазии своего создателя. Он — легенда. Мир, в котором он живет, населен древними горгульями и бессмертными демонами, которые сражаются за обладание человечеством. Величественные соборы скрывают огромные арсеналы, за дверьми научных лабораторий проводятся эксперименты по воскрешению мертвых. Война двух кланов могущественных существ достигает своего пика. И только он, Адам, монстр Франкенштейна, в силах ее остановить.- - -Качество видео: BDRip
Контейнер: AVI
Видео кодек: XVID
Аудио кодек: AC3
Видео: 720x304 (2.37:1), 23.976 fps, XviD build 73 ~1881 kbps avg, 0.36 bit/pixel-Аудио : 48 kHz, AC3 Dolby Digital, 3/2 (L,C,R,l,r) + LFE ch, ~448 kbps- Гаврилов-

Доп. информация

Автор рипа:
За исходник BD Remux 1080р огромное спасибо KpucTo161 (ХДТрэкер)
За перевод Гаврилова большое спасибо пользователям форума hdtracker.org:
_MyxAmoP_, kinobbk, Gangster, Gross1978, KpucTo161, Skibichok, Brown15, kondratzx, nimph, Role, dunhill200, Chistobaev, lexal, Pain_70, karantin66, GaryH, saenwert, Диммон, rydanes.

кванты

I frames: 2093 frames, size = 45813/95887285, quants = 2 / 2.00 / 2
P frames: 68700 frames, size = 14046/965002134, quants = 2 / 2.00 / 2
B frames: 62123 frames, size = 3911/242969128, quants = 3 / 3.00 / 3

Media Info

General
Complete name : G:\На пиратку\! не розданные\I.Frankenstein.2014.Gavrilov.byGross.avi
Format : AVI
Format/Info : Audio Video Interleave
File size : 1.51 GiB
Duration : 1h 32mn
Overall bit rate : 2 339 Kbps
Writing application : VirtualDubMod 1.5.10.3 | www.virtualdub-fr.org || (build 2550/release)
Writing library : VirtualDubMod build 2550/release
Video
ID : 0
Format : MPEG-4 Visual
Format profile : Advanced [email protected]
Format settings, BVOP : Yes
Format settings, QPel : No
Format settings, GMC : No warppoints
Format settings, Matrix : Custom
Codec ID : XVID
Codec ID/Hint : XviD
Duration : 1h 32mn
Bit rate : 1 882 Kbps
Width : 720 pixels
Height : 304 pixels
Display aspect ratio : 2.35:1
Frame rate : 23.976 fps
Color space : YUV
Chroma subsampling : 4:2:0
Bit depth : 8 bits
Scan type : Progressive
Compression mode : Lossy
Bits/(Pixel*Frame) : 0.359
Stream size : 1.21 GiB (80%)
Writing library : XviD 73
Audio
ID : 1
Format : AC-3
Format/Info : Audio Coding 3
Mode extension : CM (complete main)
Format settings, Endianness : Big
Codec ID : 2000
Duration : 1h 32mn
Bit rate mode : Constant
Bit rate : 448 Kbps
Channel count : 6 channels
Channel positions : Front: L C R, Side: L R, LFE
Sampling rate : 48.0 KHz
Bit depth : 16 bits
Compression mode : Lossy
Stream size : 296 MiB (19%)
Alignment : Split accross interleaves
Interleave, duration : 42 ms (1.00 video frame)
Interleave, preload duration : 500 ms

Скриншоты

Яндекс.Метрика
Рейтинг@Mail.ru