Sergej Rachmaninoff - His Complete Recordings (10CD Box Set RCA Records) (2005) [APE|Lossless]<Classical>

 

Создавать темы 04-Июл-2014 15:53

Sergej Rachmaninoff - His Complete Recordings- Год: 2005
Жанр: Classical
Продолжительность: 11:10:00
Кодек: APE
Битрейт: Lossless
Тип битрейта: VBR
Трек лист:

CD1&#58;

01 Concerto No.2 In C Minor Op.18 / I Moderato; Allegro
02 Concerto No.2 In C Minor Op.18 / II Adagio Sostenuto
03 Concerto No.2 In C Minor Op.18 / III Allegro Scherzando
04 Concerto No.3 In D Minor Op.30 / I Allegro Ma Non Tanto
05 Concerto No.3 In D Minor Op.30 / II Intermezzo; Adagio
06 Concerto No.3 In D Minor Op.30 / III Finale; Alla Breve

Отчёт ЕАС&#58;

Exact Audio Copy V0.99 prebeta 4 from 23. January 2008
EAC extraction logfile from 4. May 2008, 4:43
Various / Rachmaninoff Complete Recordings (CD 1/10)
Used drive : PLEXTOR DVDR PX-760A Adapter: 2 ID: 0
Read mode : Secure
Utilize accurate stream : Yes
Defeat audio cache : Yes
Make use of C2 pointers : No
Read offset correction : 0
Overread into Lead-In and Lead-Out : No
Fill up missing offset samples with silence : Yes
Delete leading and trailing silent blocks : Yes
Null samples used in CRC calculations : Yes
Used interface : Native Win32 interface for Win NT & 2000
Gap handling : Not detected, thus appended to previous track
Used output format : Monkey's Audio Lossless Encoder v3.99 DLL
Sample format : High Lossless Compression
TOC of the extracted CD
  • Track | Start | Length | Start sector | End sector
  • ---------------------------------------------------------
  • 1 | 0:00.33 | 9:48.37 | 33 | 44169
  • 2 | 9:48.70 | 10:50.40 | 44170 | 92959
  • 3 | 20:39.35 | 11:00.63 | 92960 | 142522
  • 4 | 31:40.23 | 13:57.57 | 142523 | 205354
  • 5 | 45:38.05 | 8:39.23 | 205355 | 244302
  • 6 | 54:17.28 | 11:23.35 | 244303 | 295562
    Track 1
  • Filename F:\UPS\R.HCR\CD1\Concerto No.2 In C Minor Op.18 - Rachmaninoff Complete Recordings (CD 1,10) - 01 - I Moderato; Allegro.ape
  • Peak level 57.7 %
  • Track quality 100.0 %
  • Test CRC C1776E8B
  • Copy CRC C1776E8B
  • Copy OK
    Track 2
  • Filename F:\UPS\R.HCR\CD1\Concerto No.2 In C Minor Op.18 - Rachmaninoff Complete Recordings (CD 1,10) - 02 - II Adagio Sostenuto.ape
  • Peak level 39.2 %
  • Track quality 99.9 %
  • Test CRC C83DBDF3
  • Copy CRC C83DBDF3
  • Copy OK
    Track 3
  • Filename F:\UPS\R.HCR\CD1\Concerto No.2 In C Minor Op.18 - Rachmaninoff Complete Recordings (CD 1,10) - 03 - III Allegro Scherzando.ape
  • Peak level 55.4 %
  • Track quality 99.9 %
  • Test CRC 9B25B62F
  • Copy CRC 9B25B62F
  • Copy OK
    Track 4
  • Filename F:\UPS\R.HCR\CD1\Concerto No.3 In D Minor Op.30 - Rachmaninoff Complete Recordings (CD 1,10) - 04 - I Allegro Ma Non Tanto.ape
  • Peak level 57.1 %
  • Track quality 100.0 %
  • Test CRC 596977F1
  • Copy CRC 596977F1
  • Copy OK
    Track 5
  • Filename F:\UPS\R.HCR\CD1\Concerto No.3 In D Minor Op.30 - Rachmaninoff Complete Recordings (CD 1,10) - 05 - II Intermezzo; Adagio.ape
  • Peak level 60.3 %
  • Track quality 100.0 %
  • Test CRC F5C93851
  • Copy CRC F5C93851
  • Copy OK
    Track 6
  • Filename F:\UPS\R.HCR\CD1\Concerto No.3 In D Minor Op.30 - Rachmaninoff Complete Recordings (CD 1,10) - 06 - III Finale; Alla Breve.ape
  • Peak level 81.2 %
  • Track quality 100.0 %
  • Test CRC 87B3C430
  • Copy CRC 87B3C430
  • Copy OK
    No errors occurred
    End of status report
    ------------------------------------------------------------
    Exact Audio Copy V0.99 prebeta 4 from 23. January 2008
    EAC extraction logfile from 4. May 2008, 5:13
    Various / Rachmaninoff Complete Recordings (CD 1/10)
    Used drive : PLEXTOR DVDR PX-760A Adapter: 2 ID: 0
    Read mode : Secure
    Utilize accurate stream : Yes
    Defeat audio cache : Yes
    Make use of C2 pointers : No
    Read offset correction : 0
    Overread into Lead-In and Lead-Out : No
    Fill up missing offset samples with silence : Yes
    Delete leading and trailing silent blocks : No
    Null samples used in CRC calculations : Yes
    Used interface : Native Win32 interface for Win NT & 2000
    Used output format : Monkey's Audio Lossless Encoder v3.99 DLL
    Sample format : High Lossless Compression
    TOC of the extracted CD
  • Track | Start | Length | Start sector | End sector
  • ---------------------------------------------------------
  • 1 | 0:00.33 | 9:48.37 | 33 | 44169
  • 2 | 9:48.70 | 10:50.40 | 44170 | 92959
  • 3 | 20:39.35 | 11:00.63 | 92960 | 142522
  • 4 | 31:40.23 | 13:57.57 | 142523 | 205354
  • 5 | 45:38.05 | 8:39.23 | 205355 | 244302
  • 6 | 54:17.28 | 11:23.35 | 244303 | 295562
    Range status and errors
    Selected range
  • Filename F:\UPS\R.HCR\CD1\Various - Rachmaninoff Complete Recordings (CD 1 10).ape
  • Peak level 81.2 %
  • Range quality 100.0 %
  • Copy CRC 8FBF3EF1
  • Copy OK
    No errors occurred
    End of status report

Отчёт Audiochecker&#58;

AUDIOCHECKER v2.0 beta (build 457) - by Dester - [url=mailto:[email protected]][email protected][/url]
~~~~~~~~~~~~~~~~~~~~~~~~~~~~~~~~~~
-=== НЕ РЕДАКТИРУЙТЕ ЭТОТ ФАЙЛ! ===-
Путь: ...\CD1
1 -=- Sergej Rachmaninoff - His Complete Recordings CD1.ape -=- CDDA (43%)
49266916

CD2&#58;

01 Concerto 1 Op.1- 1. Vivace
02 Concerto 1 Op.1- 2. Andante
03 Concerto 1 Op.1- 3. Allegro Vivace
04 Concerto 4 Op.40 / 1. Allegro Vivace
05 Concerto 4 Op.40 / 2. Largo
06 Concerto 4 Op.40 / 3. Allegro Vivace
07 Rhapsody On A Theme Of Paganini, Op.43 / Introduction: Allegro Vivace
08 Rhapsody On A Theme Of Paganini, Op.43 / Var.1: (Precedente)
09 Rhapsody On A Theme Of Paganini, Op.43 / Tema: L'istesso Tempo
10 Rhapsody On A Theme Of Paganini, Op.43 / Var.2: L'istesso Tempo
11 Rhapsody On A Theme Of Paganini, Op.43 / Var.3: L'istesso Tempo
12 Rhapsody On A Theme Of Paganini, Op.43 / Var.4: Piu Vivo
13 Rhapsody On A Theme Of Paganini, Op.43 / Var.5: Tempo Precedente
14 Rhapsody On A Theme Of Paganini, Op.43 / Var.6: L'isteso Tempo
15 Rhapsody On A Theme Of Paganini, Op.43 / Var.7: Meno Mosso, A Tempo Moderato
16 Rhapsody On A Theme Of Paganin, Op.43 / Var.8: Tempo I
17 Rhapsody On A Theme Of Paganini, Op.43 / Var.9: L'stesso Tempo
18 Rhapsody On A Theme Of Paganini, Op.43 / Var.10: Poco Marcato
19 Rhapsody On A Theme Of Paganini, Op.43 / Var.11: Moderato
20 Rhapsody On A Theme Of Paganini, Op.43 / Var.12: Tempo Di Minuetto
21 Rhapsody On A Theme Of Paganini, Op.43 / Var.13: Allegro
22 Rhapsody On A Theme Of Paganini, Op.43 / Var.14: L'istesso Tempo
23 Rhapsody On A Theme Of Paganini, Op.43 / Var.15; Piu Vivo Scherzando
24 Rhapsody On A Theme Of Paganini, Op.43 / Var.16: Allegretto
25 Rhapsody On A Theme Of Paganini, Op.43 / Var.17: [Allegretto]
26 Rhapsody On A Theme Of Paganini, Op.43 / Var.18: Andante Cantabile
27 Rhapsody On A Theme Of Paganini, Op.43 / Var.19: A Tempo Vivace
28 Rhapsody On A Theme Of Paganini, Op.43 / Var.20: Un Poco Piu Vivo
29 Rhapsody On A Theme Of Paganini, Op.43 / Var.21: Un Poco Piu Vivo
30 Rhapsody On A Theme Of Paganini, Op.43 / Var.22: Un Poco Piu Vivo (Alla Breve)
31 Rhapsody On A Theme Of Paganini, Op.43 / Var.23: L'istesso Tempo
32 Rhapsody On A Theme Of Paganini, Op.43 / Var.24: A Tempo Un Poco Meno Mosso

Отчёт ЕАС&#58;

Exact Audio Copy V0.99 prebeta 4 from 23. January 2008
EAC extraction logfile from 4. May 2008, 13:38
Various / Rachmaninoff Complete Recordings (CD 2/10)
Used drive : PLEXTOR DVDR PX-760A Adapter: 2 ID: 0
Read mode : Secure
Utilize accurate stream : Yes
Defeat audio cache : Yes
Make use of C2 pointers : No
Read offset correction : 0
Overread into Lead-In and Lead-Out : No
Fill up missing offset samples with silence : Yes
Delete leading and trailing silent blocks : No
Null samples used in CRC calculations : Yes
Used interface : Native Win32 interface for Win NT & 2000
Used output format : Monkey's Audio Lossless Encoder v3.99 DLL
Sample format : High Lossless Compression
TOC of the extracted CD
  • Track | Start | Length | Start sector | End sector
  • ---------------------------------------------------------
  • 1 | 0:00.32 | 12:09.48 | 32 | 54754
  • 2 | 12:10.05 | 5:23.30 | 54755 | 79009
  • 3 | 17:33.35 | 7:25.35 | 79010 | 112419
  • 4 | 24:58.70 | 9:49.25 | 112420 | 156619
  • 5 | 34:48.20 | 6:04.35 | 156620 | 183954
  • 6 | 40:52.55 | 8:50.70 | 183955 | 223774
  • 7 | 49:43.50 | 0:07.62 | 223775 | 224361
  • 8 | 49:51.37 | 0:20.70 | 224362 | 225931
  • 9 | 50:12.32 | 0:20.03 | 225932 | 227434
  • 10 | 50:32.35 | 0:19.15 | 227435 | 228874
  • 11 | 50:51.50 | 0:25.12 | 228875 | 230761
  • 12 | 51:16.62 | 0:30.38 | 230762 | 233049
  • 13 | 51:47.25 | 0:28.65 | 233050 | 235214
  • 14 | 52:16.15 | 0:52.25 | 235215 | 239139
  • 15 | 53:08.40 | 1:00.05 | 239140 | 243644
  • 16 | 54:08.45 | 0:32.72 | 243645 | 246116
  • 17 | 54:41.42 | 0:31.18 | 246117 | 248459
  • 18 | 55:12.60 | 0:50.40 | 248460 | 252249
  • 19 | 56:03.25 | 1:13.00 | 252250 | 257724
  • 20 | 57:16.25 | 1:18.32 | 257725 | 263606
  • 21 | 58:34.57 | 0:29.30 | 263607 | 265811
  • 22 | 59:04.12 | 0:44.33 | 265812 | 269144
  • 23 | 59:48.45 | 1:05.57 | 269145 | 274076
  • 24 | 60:54.27 | 1:21.23 | 274077 | 280174
  • 25 | 62:15.50 | 1:42.72 | 280175 | 287896
  • 26 | 63:58.47 | 2:44.40 | 287897 | 300236
  • 27 | 66:43.12 | 0:28.33 | 300237 | 302369
  • 28 | 67:11.45 | 0:36.60 | 302370 | 305129
  • 29 | 67:48.30 | 0:26.17 | 305130 | 307096
  • 30 | 68:14.47 | 1:38.73 | 307097 | 314519
  • 31 | 69:53.45 | 0:49.52 | 314520 | 318246
  • 32 | 70:43.22 | 1:10.23 | 318247 | 323519
    Range status and errors
    Selected range
  • Filename F:\UPS\R.HCR\CD2\Various - Rachmaninoff Complete Recordings (CD 2 10).ape
  • Peak level 97.2 %
  • Range quality 100.0 %
  • Copy CRC 80CD3E8C
  • Copy OK
    No errors occurred
    End of status report

Отчёт Audiochecker&#58;

AUDIOCHECKER v2.0 beta (build 457) - by Dester - [url=mailto:[email protected]][email protected][/url]
~~~~~~~~~~~~~~~~~~~~~~~~~~~~~~~~~~
-=== НЕ РЕДАКТИРУЙТЕ ЭТОТ ФАЙЛ! ===-
Путь: ...\CD2
1 -=- Sergej Rachmaninoff - His Complete Recordings CD2.ape -=- CDDA (43%)
49266516

CD3&#58;

01 The Isle of the Dead, Op.29
02 Songs, Op.34 - Vocalise, No. 14
03 Symphony No. 3, Op.44 - Lento; Allegro moderato
04 Symphony No. 3, Op.44 - Adagio ma non troppo
05 Symphony No. 3, Op.44 - Allegro

Отчёт ЕАС&#58;

Exact Audio Copy V0.99 prebeta 4 from 23. January 2008
EAC extraction logfile from 4. May 2008, 14:09
Rakhmaninov / The Complete Recordings, Disc 3
Used drive : PLEXTOR DVDR PX-760A Adapter: 2 ID: 0
Read mode : Secure
Utilize accurate stream : Yes
Defeat audio cache : Yes
Make use of C2 pointers : No
Read offset correction : 0
Overread into Lead-In and Lead-Out : No
Fill up missing offset samples with silence : Yes
Delete leading and trailing silent blocks : No
Null samples used in CRC calculations : Yes
Used interface : Native Win32 interface for Win NT & 2000
Used output format : Monkey's Audio Lossless Encoder v3.99 DLL
Sample format : High Lossless Compression
TOC of the extracted CD
  • Track | Start | Length | Start sector | End sector
  • ---------------------------------------------------------
  • 1 | 0:00.33 | 18:09.62 | 33 | 81769
  • 2 | 18:10.20 | 3:54.70 | 81770 | 99389
  • 3 | 22:05.15 | 12:43.48 | 99390 | 156662
  • 4 | 34:48.63 | 11:43.65 | 156663 | 209452
  • 5 | 46:32.53 | 12:23.52 | 209453 | 265229
    Range status and errors
    Selected range
  • Filename F:\UPS\R.HCR\CD3\Rakhmaninov - The Complete Recordings, Disc 3.ape
  • Peak level 91.5 %
  • Range quality 100.0 %
  • Copy CRC 88DA0C86
  • Copy OK
    No errors occurred
    End of status report

Отчёт Audiochecker&#58;

AUDIOCHECKER v2.0 beta (build 457) - by Dester - [url=mailto:[email protected]][email protected][/url]
~~~~~~~~~~~~~~~~~~~~~~~~~~~~~~~~~~
-=== НЕ РЕДАКТИРУЙТЕ ЭТОТ ФАЙЛ! ===-
Путь: ...\CD3
1 -=- Sergej Rachmaninoff - His Complete Recordings CD3.ape -=- CDDA (87%)
49265412

CD4&#58;

01 Beethoven Sonata / Op. 30, No. 3, Allegro Assai
02 Beethoven Sonata / Op. 30, No. 3, Tempo Di Minuetto, Ma Molto Moderatoe Grazioso
03 Beethoven Sonata / Op. 30, No. 3, Allegro Vivace
04 Schubert Sonata D.574 / Allegro Moderto
05 Schubert Sonata D.574 / Scherzo: Presto; Trio
06 Schubert Sonata D.574 / Andantino
07 Schubert Sonata D.574 / Allegro Vivace
08 Schubert Sonata D.574 / Allegro Vivace
09 Grieg Sonata / Op. 45, Allegretto Espressivo Alla Romanza
10 Grieg Sonata / Op. 45, Allegro Animato

Отчёт ЕАС&#58;

Exact Audio Copy V0.99 prebeta 4 from 23. January 2008
EAC extraction logfile from 4. May 2008, 14:55
Various / Rachmaninoff Complete Recordings (CD 4/10)
Used drive : PLEXTOR DVDR PX-760A Adapter: 2 ID: 0
Read mode : Secure
Utilize accurate stream : Yes
Defeat audio cache : Yes
Make use of C2 pointers : No
Read offset correction : 0
Overread into Lead-In and Lead-Out : No
Fill up missing offset samples with silence : Yes
Delete leading and trailing silent blocks : No
Null samples used in CRC calculations : Yes
Used interface : Native Win32 interface for Win NT & 2000
Used output format : Monkey's Audio Lossless Encoder v3.99 DLL
Sample format : High Lossless Compression
TOC of the extracted CD
  • Track | Start | Length | Start sector | End sector
  • ---------------------------------------------------------
  • 1 | 0:00.32 | 4:38.48 | 32 | 20929
  • 2 | 4:39.05 | 7:21.05 | 20930 | 54009
  • 3 | 12:00.10 | 3:25.30 | 54010 | 69414
  • 4 | 15:25.40 | 6:21.07 | 69415 | 97996
  • 5 | 21:46.47 | 4:18.48 | 97997 | 117394
  • 6 | 26:05.20 | 3:59.07 | 117395 | 135326
  • 7 | 30:04.27 | 5:05.03 | 135327 | 158204
  • 8 | 35:09.30 | 9:00.00 | 158205 | 198704
  • 9 | 44:09.30 | 6:41.02 | 198705 | 228781
  • 10 | 50:50.32 | 7:25.55 | 228782 | 262211
    Range status and errors
    Selected range
  • Filename F:\UPS\R.HCR\CD4\Various - Rachmaninoff Complete Recordings (CD 4 10).ape
  • Peak level 80.4 %
  • Range quality 100.0 %
  • Copy CRC FE1FFBB5
  • Copy OK
    No errors occurred
    End of status report

Отчёт Audiochecker&#58;

AUDIOCHECKER v2.0 beta (build 457) - by Dester - [url=mailto:[email protected]][email protected][/url]
~~~~~~~~~~~~~~~~~~~~~~~~~~~~~~~~~~
-=== НЕ РЕДАКТИРУЙТЕ ЭТОТ ФАЙЛ! ===-
Путь: ...\CD4
1 -=- Sergej Rachmaninoff - His Complete Recordings CD4.ape -=- CDDA (87%)
49265524

CD5&#58;

01 J.S Bach: Partita No. 4, BWV 828: Sarabande
02 Handel: Harpsicord Suite No. 5: Air And Variations - 'Harmonious Blacksmith'
03 Mozart: Sonata, K. 331: Rondo alla turca
04 Beethoven: 32 Variations, WoO 80: Thema: Allegretto
05 Beethoven: Variation I
06 Beethoven: Variation II
07 Beethoven: Variation III
08 Beethoven: Variation IV
09 Beethoven: Variation V
10 Beethoven: Variation VI
11 Beethoven: Variation VII
12 Beethoven: Variation VIII
13 Beethoven: Variation IX
14 Beethoven: Variation X
15 Beethoven: Variation XI
16 Beethoven: Variation XII
17 Beethoven: Variation XIII
18 Beethoven: Variation XIV
19 Beethoven: Variation XIX
20 Beethoven: Variation XXII
21 Beethoven: Variation XXIII
22 Beethoven: Variation XXIV
23 Beethoven: Variation XXV
24 Beethoven: Variation XXVI
25 Beethoven: Variation XXVII
26 Beethoven: Variation XXVIII
27 Beethoven: Variation XXXI
28 Beethoven: Variation XXXII
29 Chopin: Heimkehr
30 Chopin: Polnische Lieder: Madchens Wunsch
31 Schubert: Die schone Mullerin: Das Wandern
32 Schubert: Schwanengesang: Standchen
33 Liszt: Polonaise No.2 in mi major
34 Medlessohn: Lieder ohne Worte, Op. 67: Spinnerlied
35 Schubert: Impromptu, Op. 90, No. 4 In A Flat
36 Liszt: Concert Etude No.2: Gnomenreigen
37 Gluck-Sgambati: Orfeo ed Euridice: Melodie
38 Mendelssoh: Etude, Op. 104b, No. 2 In F Major
39 Mendelssohn: Etude, Op. 104b, No. 3 In A minor
40 Schumann: Spanisches Liederspiel: Der Kontrabandiste
41 Paderewski: Minuet, Op. 14, No. 1 In G
42 Kreisler-Rachmaninov: Liebesfreud

Отчёт ЕАС&#58;

Exact Audio Copy V0.99 prebeta 4 from 23. January 2008
EAC extraction logfile from 4. May 2008, 16:20
Bach, Handel, Mozart, Beethoven, Chopin-Liszt, Schubert-Liszt, Liszt, Mendlessohn, Schumann-Tausig, Paderewski, Kreisler-Rachma / Rachmaninoff : His Complete Recordins (CD5 0f 10)
Used drive : PLEXTOR DVDR PX-760A Adapter: 2 ID: 0
Read mode : Secure
Utilize accurate stream : Yes
Defeat audio cache : Yes
Make use of C2 pointers : No
Read offset correction : 0
Overread into Lead-In and Lead-Out : No
Fill up missing offset samples with silence : Yes
Delete leading and trailing silent blocks : No
Null samples used in CRC calculations : Yes
Used interface : Native Win32 interface for Win NT & 2000
Used output format : Monkey's Audio Lossless Encoder v3.99 DLL
Sample format : High Lossless Compression
TOC of the extracted CD
  • Track | Start | Length | Start sector | End sector
  • ---------------------------------------------------------
  • 1 | 0:00.33 | 4:21.45 | 33 | 19652
  • 2 | 4:22.03 | 4:16.70 | 19653 | 38922
  • 3 | 8:38.73 | 2:16.62 | 38923 | 49184
  • 4 | 10:55.60 | 0:16.60 | 49185 | 50444
  • 5 | 11:12.45 | 0:11.45 | 50445 | 51314
  • 6 | 11:24.15 | 0:11.08 | 51315 | 52147
  • 7 | 11:35.23 | 0:12.10 | 52148 | 53057
  • 8 | 11:47.33 | 0:15.25 | 53058 | 54207
  • 9 | 12:02.58 | 0:20.32 | 54208 | 55739
  • 10 | 12:23.15 | 0:09.53 | 55740 | 56467
  • 11 | 12:32.68 | 0:19.05 | 56468 | 57897
  • 12 | 12:51.73 | 0:16.02 | 57898 | 59099
  • 13 | 13:08.00 | 0:24.48 | 59100 | 60947
  • 14 | 13:32.48 | 0:15.30 | 60948 | 62102
  • 15 | 13:48.03 | 0:15.05 | 62103 | 63232
  • 16 | 14:03.08 | 0:19.70 | 63233 | 64727
  • 17 | 14:23.03 | 0:16.25 | 64728 | 65952
  • 18 | 14:39.28 | 0:16.47 | 65953 | 67199
  • 19 | 14:56.00 | 0:12.73 | 67200 | 68172
  • 20 | 15:08.73 | 0:15.15 | 68173 | 69312
  • 21 | 15:24.13 | 0:26.67 | 69313 | 71329
  • 22 | 15:51.05 | 0:09.65 | 71330 | 72069
  • 23 | 16:00.70 | 0:16.23 | 72070 | 73292
  • 24 | 16:17.18 | 0:11.52 | 73293 | 74169
  • 25 | 16:28.70 | 0:12.18 | 74170 | 75087
  • 26 | 16:41.13 | 0:18.52 | 75088 | 76489
  • 27 | 16:59.65 | 0:16.55 | 76490 | 77744
  • 28 | 17:16.45 | 1:33.00 | 77745 | 84719
  • 29 | 18:49.45 | 1:27.20 | 84720 | 91264
  • 30 | 20:16.65 | 2:42.43 | 91265 | 103457
  • 31 | 22:59.33 | 1:41.30 | 103458 | 111062
  • 32 | 24:40.63 | 4:26.72 | 111063 | 131084
  • 33 | 29:07.60 | 7:39.00 | 131085 | 165509
  • 34 | 36:46.60 | 1:43.18 | 165510 | 173252
  • 35 | 38:30.03 | 4:31.57 | 173253 | 193634
  • 36 | 43:01.60 | 3:07.10 | 193635 | 207669
  • 37 | 46:08.70 | 3:29.60 | 207670 | 223404
  • 38 | 49:38.55 | 2:50.45 | 223405 | 236199
  • 39 | 52:29.25 | 1:48.35 | 236200 | 244334
  • 40 | 54:17.60 | 1:51.38 | 244335 | 252697
  • 41 | 56:09.23 | 3:52.50 | 252698 | 270147
  • 42 | 60:01.73 | 4:59.00 | 270148 | 292572
    Range status and errors
    Selected range
  • Filename F:\UPS\R.HCR\CD5\Bach, Handel, Mozart, Beethoven, Chopin-Liszt, Schubert-Liszt, Liszt, Mendlessohn, Schumann-Tausig, Paderewski, Kreisler-Rachma - Rachmaninoff His Complete Recordins (CD5 0f 10).ape
  • Peak level 79.5 %
  • Range quality 100.0 %
  • Copy CRC 428F7C80
  • Copy OK
    No errors occurred
    End of status report

Отчёт Audiochecker&#58;

AUDIOCHECKER v2.0 beta (build 457) - by Dester - [url=mailto:[email protected]][email protected][/url]
~~~~~~~~~~~~~~~~~~~~~~~~~~~~~~~~~~
-=== НЕ РЕДАКТИРУЙТЕ ЭТОТ ФАЙЛ! ===-
Путь: ...\CD5
1 -=- Sergej Rachmaninoff - His Complete Recordings CD5.ape -=- CDDA (100%)
251282724

CD6&#58;

01 Chopin: Sonata No.2, Op. 35 "Funeral March":Grave; Doppio movimento
02 Chopin: Sonata No.2, Op. 35 "Funeral March": Scherzo
03 Chopin: Sonata No.2, Op. 35 "Funeral March": Marche funebre
04 Chopin: Sonata No.2, Op. 35 "Funeral March": Presto
05 Schumann / Carnaval Op.9 - Preambule
06 Schumann / Carnaval Op.9 - Pierrot
07 Schumann / Carnaval Op.9 - Arlequin
08 Schumann / Carnaval Op.9 - Valse noble
09 Schumann / Carnaval Op.9 - Eusebius
10 Schumann / Carnaval Op.9 - Florestan
11 Schumann / Carnaval Op.9 - Coquette
12 Schumann / Carnaval Op.9 - Replique
13 Schumann / Carnaval Op. - Sphinxes
14 Schumann / Carnaval Op.9 - Papillons
15 Schumann / Carnaval Op.9 - A.S.C.H.-S.C.H.A. (Lettres dansantes)
16 Schumann / Carnaval Op.9 - Chiarina
17 Schumann / Carnaval Op.9 - Chopin
18 Schumann / Carnaval Op.9 - Estrella
19 Schumann / Carnaval Op.9 - Reconnaissance
20 Schumann / Carnaval Op.9 - Pantalon et Columbine
21 Schumann / Carnaval Op.9 - Valse allemande
22 Schumann / Carnaval Op.9 - Paganini (Intermezzo)
23 Schumann / Carnaval Op.9 - Aveu
24 Schumann / Carnaval Op.9 - Promenade
25 Schumann / Carnaval Op.9 - Pause
26 Schumann / Carnaval Op.9 - Marche des "Davidsbundler" contre les Philistins
27 Chopin / Nocturne, Op. 9, No. 2
28 Chopin / Waltz, Op. 64, No. 2
29 Chopin / Waltz, Op. 64, No. 3
30 Chopin / Ballade, No. 3, Op. 47
31 Chopin / Mazurka, Op. 68, No. 2
32 Chopin / Waltz, Op. Posth.

Отчёт ЕАС&#58;

Exact Audio Copy V0.99 prebeta 4 from 23. January 2008
EAC extraction logfile from 4. May 2008, 17:53
Chopin Sonata no.2, Schumann Carnaval, Chopin / Sergrej Rachmaninoff : His Complete Recordings (CD6of10)
Used drive : PLEXTOR DVDR PX-760A Adapter: 2 ID: 0
Read mode : Secure
Utilize accurate stream : Yes
Defeat audio cache : Yes
Make use of C2 pointers : No
Read offset correction : 0
Overread into Lead-In and Lead-Out : No
Fill up missing offset samples with silence : Yes
Delete leading and trailing silent blocks : No
Null samples used in CRC calculations : Yes
Used interface : Native Win32 interface for Win NT & 2000
Used output format : Monkey's Audio Lossless Encoder v3.99 DLL
Sample format : High Lossless Compression
TOC of the extracted CD
  • Track | Start | Length | Start sector | End sector
  • ---------------------------------------------------------
  • 1 | 0:00.33 | 5:53.17 | 33 | 26524
  • 2 | 5:53.50 | 5:20.03 | 26525 | 50527
  • 3 | 11:13.53 | 6:08.67 | 50528 | 78194
  • 4 | 17:22.45 | 1:30.60 | 78195 | 85004
  • 5 | 18:53.30 | 2:14.08 | 85005 | 95062
  • 6 | 21:07.38 | 1:07.70 | 95063 | 100157
  • 7 | 22:15.33 | 0:33.67 | 100158 | 102699
  • 8 | 22:49.25 | 1:02.18 | 102700 | 107367
  • 9 | 23:51.43 | 1:27.37 | 107368 | 113929
  • 10 | 25:19.05 | 0:47.15 | 113930 | 117469
  • 11 | 26:06.20 | 0:58.68 | 117470 | 121887
  • 12 | 27:05.13 | 0:24.15 | 121888 | 123702
  • 13 | 27:29.28 | 0:36.27 | 123703 | 126429
  • 14 | 28:05.55 | 0:38.65 | 126430 | 129344
  • 15 | 28:44.45 | 0:38.60 | 129345 | 132254
  • 16 | 29:23.30 | 1:07.68 | 132255 | 137347
  • 17 | 30:31.23 | 0:45.17 | 137348 | 140739
  • 18 | 31:16.40 | 0:24.30 | 140740 | 142569
  • 19 | 31:40.70 | 1:23.40 | 142570 | 148834
  • 20 | 33:04.35 | 0:50.33 | 148835 | 152617
  • 21 | 33:54.68 | 0:51.07 | 152618 | 156449
  • 22 | 34:46.00 | 1:15.23 | 156450 | 162097
  • 23 | 36:01.23 | 0:45.32 | 162098 | 165504
  • 24 | 36:46.55 | 1:52.45 | 165505 | 173949
  • 25 | 38:39.25 | 0:16.35 | 173950 | 175184
  • 26 | 38:55.60 | 3:05.45 | 175185 | 189104
  • 27 | 42:01.30 | 4:46.43 | 189105 | 210597
  • 28 | 46:47.73 | 3:38.05 | 210598 | 226952
  • 29 | 50:26.03 | 2:48.47 | 226953 | 239599
  • 30 | 53:14.50 | 7:22.13 | 239600 | 272762
  • 31 | 60:36.63 | 2:45.17 | 272763 | 285154
  • 32 | 63:22.05 | 1:43.70 | 285155 | 292949
    Range status and errors
    Selected range
  • Filename F:\UPS\SR.HCR\CD6\Chopin Sonata no.2, Schumann Carnaval, Chopin - Sergrej Rachmaninoff His Complete Recordings (CD6of10).ape
  • Peak level 79.7 %
  • Range quality 100.0 %
  • Copy CRC CC8D6C53
  • Copy OK
    No errors occurred
    End of status report

Отчёт Audiochecker&#58;

AUDIOCHECKER v2.0 beta (build 457) - by Dester - [url=mailto:[email protected]][email protected][/url]
~~~~~~~~~~~~~~~~~~~~~~~~~~~~~~~~~~
-=== НЕ РЕДАКТИРУЙТЕ ЭТОТ ФАЙЛ! ===-
Путь: ...\CD6
1 -=- Sergej Rachmaninoff - His Complete Recordings CD6.ape -=- MPEG (90%)
115718644

CD7&#58;

01 Bach: Partita No. 3, BWV 1006: Preludio
02 Gavotte; Rondo
03 Gigue
04 Mendelssohn: A Midsummer Night's Dream: Scherzo
05 Kreisler: Liebesfreud
06 Schubert: Die schone Mullerin: Wohin?
07 Rachmaninoff: Polka de V.R.
08 Etude-tableau, Op. 39, No. 6 in A Minor
09 Prelude, Op. 3, No. 2 in C Sharp
10 Mussorgsky: The Fair At Sorochinsk: Hopak
11 Tchaikovsky: Lullaby, Op. 16, No. 1
12 Rimsky-Korssakoff: Tsar Saltan: The Flight of the Bumblebee
13 Beethoven: The Ruins of Athens: Turkish March
14 Borodin: Scherzo in A Flat
15 Tchaikovsky: The Seasons: November: Troika
16 Scriabin: Prelude, Op. 11, No. 8 in F Sharp
17 J. Strauss, Jr.: Man lebt nur einmal
18 Traditional: Powder and Paint
19 Rachmaninoff: Polka italienne (Piano 4 Hands)

Отчёт ЕАС&#58;

Exact Audio Copy V0.99 prebeta 4 from 23. January 2008
EAC extraction logfile from 4. May 2008, 22:30
J.S. Bach-Mendelssohn-Kreisler-Schubert-Rachmaninoff-Mussorgsky-Rimsky-Korssakoff-Beethoven-Borodin-Tchaikovsky-etc / Sergej Rachmaninoff His Complete Recordings (CD7 of 10)
Used drive : PLEXTOR DVDR PX-760A Adapter: 2 ID: 0
Read mode : Secure
Utilize accurate stream : Yes
Defeat audio cache : Yes
Make use of C2 pointers : No
Read offset correction : 0
Overread into Lead-In and Lead-Out : No
Fill up missing offset samples with silence : Yes
Delete leading and trailing silent blocks : No
Null samples used in CRC calculations : Yes
Used interface : Native Win32 interface for Win NT & 2000
Used output format : Monkey's Audio Lossless Encoder v3.99 DLL
Sample format : High Lossless Compression
TOC of the extracted CD
  • Track | Start | Length | Start sector | End sector
  • ---------------------------------------------------------
  • 1 | 0:00.33 | 3:13.42 | 33 | 14549
  • 2 | 3:14.00 | 2:49.73 | 14550 | 27297
  • 3 | 6:03.73 | 1:05.40 | 27298 | 32212
  • 4 | 7:09.38 | 4:01.35 | 32213 | 50322
  • 5 | 11:10.73 | 7:02.07 | 50323 | 81979
  • 6 | 18:13.05 | 2:22.20 | 81980 | 92649
  • 7 | 20:35.25 | 3:48.33 | 92650 | 109782
  • 8 | 24:23.58 | 2:33.02 | 109783 | 121259
  • 9 | 26:56.60 | 3:41.53 | 121260 | 137887
  • 10 | 30:38.38 | 1:49.00 | 137888 | 146062
  • 11 | 32:27.38 | 4:02.70 | 146063 | 164282
  • 12 | 36:30.33 | 1:13.00 | 164283 | 169757
  • 13 | 37:43.33 | 3:04.37 | 169758 | 183594
  • 14 | 40:47.70 | 2:59.20 | 183595 | 197039
  • 15 | 43:47.15 | 3:57.30 | 197040 | 214844
  • 16 | 47:44.45 | 2:37.53 | 214845 | 226672
  • 17 | 50:22.23 | 7:01.50 | 226673 | 258297
  • 18 | 57:23.73 | 3:49.47 | 258298 | 275519
  • 19 | 61:13.45 | 1:18.40 | 275520 | 281409
    Range status and errors
    Selected range
  • Filename F:\UPS\SR.HCR\CD7\J.S. Bach-Mendelssohn-Kreisler-Schubert-Rachmaninoff-Mussorgsky-Rimsky-Korssakoff-Beethoven-Borodin-Tchaikovsky-etc - Sergej Rachmaninoff His Complete Recordings (CD7 of 10).ape
  • Peak level 81.5 %
  • Range quality 100.0 %
  • Copy CRC 0B6D62A3
  • Copy OK
    No errors occurred
    End of status report

Отчёт Audiochecker&#58;

AUDIOCHECKER v2.0 beta (build 457) - by Dester - [url=mailto:[email protected]][email protected][/url]
~~~~~~~~~~~~~~~~~~~~~~~~~~~~~~~~~~
-=== НЕ РЕДАКТИРУЙТЕ ЭТОТ ФАЙЛ! ===-
Путь: ...\CD7
1 -=- Sergej Rachmaninoff - His Complete Recordings CD7.ape -=- CDDA (100%)
251281188

CD8&#58;

01 Rachmaninoff: Piano Concerto No. 2, Op. 18 in C Minor: Moderato; Allegro
02 Adagio sostenuto
03 Allegro scherzando
04 Prelude, Op. 23, No. 10 in G Flat
05 Prelude, Op. 32, No. 3 in E
06 Prelude, Op. 32, No. 7 in F
07 Prelude, Op. 32, No. 6 in F Minor
08 Etude-Tableau, Op. 33, No. 2 in C
09 Etude-Tableau, Op. 33, No. 7 in E Flat
10 Daisies, Op. 38, No. 3
11 Oriental Sketch
12 Melodie, Op. 3, No. 3 in E
13 Serenade, Op. 3, No. 5 in B Flat
14 Humoresque, Op. 10, No. 5 in G
15 Lilacs, Op. 21, No. 5
16 Moment Musical, Op. 16, No. 2 in E

Отчёт ЕАС&#58;

Exact Audio Copy V0.99 prebeta 4 from 23. January 2008
EAC extraction logfile from 4. May 2008, 23:01
Rachmaninoff / Sergej Rachmaninoff His Complete Recordings - (Disc 8 of 10)
Used drive : PLEXTOR DVDR PX-760A Adapter: 2 ID: 0
Read mode : Secure
Utilize accurate stream : Yes
Defeat audio cache : Yes
Make use of C2 pointers : No
Read offset correction : 0
Overread into Lead-In and Lead-Out : No
Fill up missing offset samples with silence : Yes
Delete leading and trailing silent blocks : No
Null samples used in CRC calculations : Yes
Used interface : Native Win32 interface for Win NT & 2000
Used output format : Monkey's Audio Lossless Encoder v3.99 DLL
Sample format : High Lossless Compression
TOC of the extracted CD
  • Track | Start | Length | Start sector | End sector
  • ---------------------------------------------------------
  • 1 | 0:00.00 | 9:27.32 | 0 | 42556
  • 2 | 9:27.32 | 10:14.70 | 42557 | 88676
  • 3 | 19:42.27 | 10:44.03 | 88677 | 136979
  • 4 | 30:26.30 | 3:19.32 | 136980 | 151936
  • 5 | 33:45.62 | 2:22.50 | 151937 | 162636
  • 6 | 36:08.37 | 2:13.53 | 162637 | 172664
  • 7 | 38:22.15 | 1:20.62 | 172665 | 178726
  • 8 | 39:43.02 | 2:15.35 | 178727 | 188886
  • 9 | 41:58.37 | 1:46.33 | 188887 | 196869
  • 10 | 43:44.70 | 2:12.40 | 196870 | 206809
  • 11 | 45:57.35 | 1:49.02 | 206810 | 214986
  • 12 | 47:46.37 | 3:51.15 | 214987 | 232326
  • 13 | 51:37.52 | 2:55.20 | 232327 | 245471
  • 14 | 54:32.72 | 3:32.45 | 245472 | 261416
  • 15 | 58:05.42 | 2:21.53 | 261417 | 272044
  • 16 | 60:27.20 | 2:51.00 | 272045 | 284869
    Range status and errors
    Selected range
  • Filename F:\UPS\SR.HCR\CD8\Rachmaninoff - Sergej Rachmaninoff His Complete Recordings - (Disc 8 of 10).ape
  • Peak level 88.8 %
  • Range quality 100.0 %
  • Copy CRC 35EC311E
  • Copy OK
    No errors occurred
    End of status report

Отчёт Audiochecker&#58;

AUDIOCHECKER v2.0 beta (build 457) - by Dester - [url=mailto:[email protected]][email protected][/url]
~~~~~~~~~~~~~~~~~~~~~~~~~~~~~~~~~~
-=== НЕ РЕДАКТИРУЙТЕ ЭТОТ ФАЙЛ! ===-
Путь: ...\CD8
1 -=- Sergej Rachmaninoff - His Complete Recordings CD8.ape -=- CDDA (100%)
251277860

CD9&#58;

01 Chopin: Mazurka, Op. 63, No. 3 in C Sharp
02 Nocturne, Op. 15, No. 2 in F Sharp
03 Waltz, Op. 18 "Grande valse brillante" in E Sharp
04 Waltz, Op. 34, No. 3 "Valse brillante" in F
05 Waltz, Op. 64, No. 1 "Minute" in D Flat (1921)
06 Waltz, Op. 69, No. 2 in B Minor
07 Waltz, Op. 70, No. 1 in G Flat
08 Scherzo No. 3, Op. 39 in C Sharp
09 Waltz , Op. 64, No. 1 Minute in D Flat (1923)
10 Daquin: Le coucou
11 Bizet: L'arlesienne Suite No. 1: Minuet
12 Saint-Saens: Carnival of the Animals: The Swan
13 Mendelssohn: Lieder ohne Worte, Op. 67: Spinnerlied
14 Grieg: Lyric Pieces for Piano, Book 1: Waltz, No. 2
15 Elfin Dance, No. 4
16 Dohnanyi: Etude, Op. 28, No. 6
17 Henselt: Etude, Op. 2, No.6: Si oiseau j'etais
18 Moszkowski: Etude, Op. 52, No. 4: La jongleuse
19 Debussy: Children's Corner: Dr. Gradus ad Parnassum
20 Golliwogg's Cakewalk
21 Tchaikovsky: The Seasons: November: Troika
22 Humoresque, Op. 10, No. 2
23 Waltz, Op. 40, No. 8

Отчёт ЕАС&#58;

Exact Audio Copy V0.99 prebeta 4 from 23. January 2008
EAC extraction logfile from 4. May 2008, 23:31
Rachmaninoff / His Complete Recordings - (Disc 9 of 10)
Used drive : PLEXTOR DVDR PX-760A Adapter: 2 ID: 0
Read mode : Secure
Utilize accurate stream : Yes
Defeat audio cache : Yes
Make use of C2 pointers : No
Read offset correction : 0
Overread into Lead-In and Lead-Out : No
Fill up missing offset samples with silence : Yes
Delete leading and trailing silent blocks : No
Null samples used in CRC calculations : Yes
Used interface : Native Win32 interface for Win NT & 2000
Used output format : Monkey's Audio Lossless Encoder v3.99 DLL
Sample format : High Lossless Compression
TOC of the extracted CD
  • Track | Start | Length | Start sector | End sector
  • ---------------------------------------------------------
  • 1 | 0:00.33 | 2:05.27 | 33 | 9434
  • 2 | 2:05.60 | 3:43.48 | 9435 | 26207
  • 3 | 5:49.33 | 4:36.57 | 26208 | 46964
  • 4 | 10:26.15 | 2:47.00 | 46965 | 59489
  • 5 | 13:13.15 | 1:59.25 | 59490 | 68439
  • 6 | 15:12.40 | 3:03.25 | 68440 | 82189
  • 7 | 18:15.65 | 1:56.25 | 82190 | 90914
  • 8 | 20:12.15 | 6:57.03 | 90915 | 122192
  • 9 | 27:09.18 | 2:18.15 | 122193 | 132557
  • 10 | 29:27.33 | 2:03.22 | 132558 | 141804
  • 11 | 31:30.55 | 2:45.53 | 141805 | 154232
  • 12 | 34:16.33 | 3:04.17 | 154233 | 168049
  • 13 | 37:20.50 | 1:51.63 | 168050 | 176437
  • 14 | 39:12.38 | 1:40.65 | 176438 | 184002
  • 15 | 40:53.28 | 0:42.72 | 184003 | 187224
  • 16 | 41:36.25 | 2:42.38 | 187225 | 199412
  • 17 | 44:18.63 | 1:44.65 | 199413 | 207277
  • 18 | 46:03.53 | 1:50.55 | 207278 | 215582
  • 19 | 47:54.33 | 2:05.65 | 215583 | 225022
  • 20 | 50:00.23 | 3:10.22 | 225023 | 239294
  • 21 | 53:10.45 | 3:51.50 | 239295 | 256669
  • 22 | 57:02.20 | 2:47.38 | 256670 | 269232
  • 23 | 59:49.58 | 2:57.45 | 269233 | 282552
    Range status and errors
    Selected range
  • Filename F:\UPS\SR.HCR\CD9\Rachmaninoff - His Complete Recordings - (Disc 9 of 10).ape
  • Peak level 100.0 %
  • Range quality 100.0 %
  • Copy CRC ADE70D22
  • Copy OK
    No errors occurred
    End of status report

Отчёт Audiochecker&#58;

AUDIOCHECKER v2.0 beta (build 457) - by Dester - [url=mailto:[email protected]][email protected][/url]
~~~~~~~~~~~~~~~~~~~~~~~~~~~~~~~~~~
-=== НЕ РЕДАКТИРУЙТЕ ЭТОТ ФАЙЛ! ===-
Путь: ...\CD9
1 -=- Sergej Rachmaninoff - His Complete Recordings CD9.ape -=- CDDA (100%)
251279652

CD10&#58;

01 Rachmaninov / Prelude, Op. 23, No. 5
02 Rachmaninov / Prelude, Op. 32, No. 12
03 Rachmaninov / Prelude, Op. 32, No. 2
04 Rachmaninov / Prelude, Op. 32, No. 5
05 Rachmaninov / Serenade, Op. 3, No. 5
06 Rachmaninov / Lilacs, Op. 21, No. 5
07 Rachmaninov / Polichinelle, Op. 3, No. 4
08 Rachmaninov / Polka de V.R. (1921)
09 Kreisler / Liebesleid
10 Liszt / Hungarian Rhapsody No. 2
11 D Scarlatti / Pastorale
12 Mozart / Sonata, K.331: Theme and Variations: I
13 Chopin / Waltz, Op. 42 "Two-Four"
14 Chopin / Waltz, Op. 64 No. 3
15 Rachmaninov / Polka de V.R. (1919)
16 Rachmaninov / Barcarolle, Op. 10, No. 3
17 Rachmaninov / Prelude, Op. 3, No. 2

Отчёт ЕАС&#58;

Exact Audio Copy V0.99 prebeta 4 from 23. January 2008
EAC extraction logfile from 5. May 2008, 0:03
Rachmaninov, Kreisler, Liszt, Scarlatti, Mozart, Chopin / Rachmaninoff : his Complete Recordings - (Disc 10 of 10)
Used drive : PLEXTOR DVDR PX-760A Adapter: 2 ID: 0
Read mode : Secure
Utilize accurate stream : Yes
Defeat audio cache : Yes
Make use of C2 pointers : No
Read offset correction : 0
Overread into Lead-In and Lead-Out : No
Fill up missing offset samples with silence : Yes
Delete leading and trailing silent blocks : No
Null samples used in CRC calculations : Yes
Used interface : Native Win32 interface for Win NT & 2000
Used output format : Monkey's Audio Lossless Encoder v3.99 DLL
Sample format : High Lossless Compression
TOC of the extracted CD
  • Track | Start | Length | Start sector | End sector
  • ---------------------------------------------------------
  • 1 | 0:00.00 | 3:35.45 | 0 | 16169
  • 2 | 3:35.45 | 2:33.57 | 16170 | 27701
  • 3 | 6:09.27 | 3:40.35 | 27702 | 44236
  • 4 | 9:49.62 | 3:03.03 | 44237 | 57964
  • 5 | 12:52.65 | 3:10.20 | 57965 | 72234
  • 6 | 16:03.10 | 2:33.30 | 72235 | 83739
  • 7 | 18:36.40 | 3:38.40 | 83740 | 100129
  • 8 | 22:15.05 | 4:03.20 | 100130 | 118374
  • 9 | 26:18.25 | 4:21.72 | 118375 | 138021
  • 10 | 30:40.22 | 10:29.20 | 138022 | 185216
  • 11 | 41:09.42 | 4:00.30 | 185217 | 203246
  • 12 | 45:09.72 | 4:06.53 | 203247 | 221749
  • 13 | 49:16.50 | 3:57.50 | 221750 | 239574
  • 14 | 53:14.25 | 2:47.25 | 239575 | 252124
  • 15 | 56:01.50 | 4:08.60 | 252125 | 270784
  • 16 | 60:10.35 | 3:55.50 | 270785 | 288459
  • 17 | 64:06.10 | 3:42.65 | 288460 | 305174
    Range status and errors
    Selected range
  • Filename F:\UPS\SR.HCR\CD10\Rachmaninov, Kreisler, Liszt, Scarlatti, Mozart, Chopin - Rachmaninoff his Complete Recordings - (Disc 10 of 10).ape
  • Peak level 64.1 %
  • Range quality 100.0 %
  • Copy CRC FECC869B
  • Copy OK
    No errors occurred
    End of status report

Отчёт Audiochecker&#58;

AUDIOCHECKER v2.0 beta (build 457) - by Dester - [url=mailto:[email protected]][email protected][/url]
~~~~~~~~~~~~~~~~~~~~~~~~~~~~~~~~~~
-=== НЕ РЕДАКТИРУЙТЕ ЭТОТ ФАЙЛ! ===-
Путь: ...\CD10
1 -=- Sergej Rachmaninoff - His Complete Recordings CD10.ape -=- CDDA (100%)
211727588

Яндекс.Метрика
Рейтинг@Mail.ru