Калифорникейшн / Блудливая Калифорния / Californication (Сезон 7 / Полный / серии: 12 из 12) (Дэвид Фон Энкен / David Von Ancken ...) [2012г., Драма, Комедия , HDTV-Rip] MVO (LostFilm)

 

Создавать темы 03-Июл-2014 17:15

Калифорникейшн / Блудливая Калифорния
Californication

«Hank Moody... No man is more committed to a midlife crisis.»
- Русское название: Калифорникейшн / Блудливая Калифорния
Оригинальное название: Californication
Страна: США
Год выпуска: 2013
Жанр: Драма, Комедия-Озвучка: Студия LostFilm
Перевод: Многоголосый закадровый, профессиональный-Премьера (мир): 13 августа 2007, ...
Премьера (РФ): 12 августа 2008
Релиз на DVD: 26 октября 2010, «Юниверсал Пикчерс Рус», ...-Режиссер: Дэвид Фон Энкен / David Von Ancken, Адам Бернштейн / Adam Bernstein, Джон Дал / John Dahl ...
Актеры: Дэвид Духовны, Наташа МакЭлхоун, Мадлен Мартин, Эван Хэндлер, Памела Адлон, Мадлен Зима, Стивен Тоболовски, Каллум Кит Ренни, Рэйчел Майнер, Джейсон Бех, Рэйчел Майнер ...
Роли дублировали: Борис Шувалов, Ольга Зубкова, Соня Реснянская, Никита Прозоровский, Любовь Германова ...-Описание фильма:
Финальный отрывок жизни горе-писателя Хэнка Муди! Сюжет сериала повествует историю известного писателя и не менее известного дамского угодника Хэнка Муди. Когда-то давно Хэнк Муди был вполне счастливым жителем Нью-Йорка, у которого была спутница жизни Карен и их прекрасная дочь Рэбека. Но, видимо, счастье не может длиться вечно. Последний роман Хэнка «Бог ненавидит всех нас» решили экранизировать в Лос-Анджелесе. Вся семья сорвалась с насиженного места и отправилась на встречу «американской мечте». Однако для Хэнка Муди Город Ангелов обернулся настоящим адом.-Сезон: 7
Серии: 12 из 12 серий
Продолжительность: ~ 00:28:00 мин серия-Качество видео: HDTV-Rip
Формат: AVI
Видеокодек: XviD
Аудиокодек: Mp3
Видео: MPEG-4 Visual at 1435 Кбит/сек, 720 x 400 (1.800) at 23.976 fps, 0.208 Бит/Пик
Аудио: MPEG Audio at 192 Кбит/сек, 2 канала, 48,0 КГц
- -

Список серий:

  • Левон (Levon)
  • Джулия (Julia)
  • Яблочко от яблони (Like Father Like Son)
  • Козлы (Dicks)
  • Выпуская яд (Getting the Poison Out)
  • Начало съемок (Kickoff)
  • Улыбнись (Smile)
  • 30 минут или меньше (30 Minutes or Less)
  • Вера, надежда, любовь (Faith, Hope, Love)
  • Ужин с друзьями (Dinner with Friends)
  • Дочь (Daughter)
  • Вера (Grace)
-

MediaInfo:

Общее
Полное имя                               : E:\_Сериалы\000\Калифорникейшн\Californication-S7 (LostFilm)\Californication.S07E01.rus.LostFilm.TV.avi
Формат                                   : AVI
Формат/Информация                        : Audio Video Interleave
Размер файла                             : 334 Мбайт
Продолжительность                        : 28 м.
Режим общего битрейта                    : Переменный
Общий поток                              : 1634 Кбит/сек
Программа кодирования                    : Nandub v1.0rc2
Библиотека кодирования                   : Nandub build 1853/release
Видео
Идентификатор                            : 0
Формат                                   : MPEG-4 Visual
Профиль формата                          : [email protected]
Параметр BVOP формата                    : Нет
Параметр QPel формата                    : Нет
Параметр GMC формата                     : Без точки перехода
Параметр матрицы формата                 : Default (H.263)
Идентификатор кодека                     : XVID
Идентификатор кодека/Подсказка           : XviD
Продолжительность                        : 28 м.
Битрейт                                  : 1435 Кбит/сек
Ширина                                   : 720 пикселей
Высота                                   : 400 пикселей
Соотношение сторон                       : 16:9
Частота кадров                           : 23,976 кадра/сек
Цветовое пространство                    : YUV
Субдискретизация насыщенности            : 4:2:0
Битовая глубина                          : 8 бит
Тип развёртки                            : Прогрессивная
Метод сжатия                             : С потерями
Бит/(Пиксели*Кадры)                      : 0.208
Размер потока                            : 293 Мбайт (88%)
Библиотека кодирования                   : XviD 1.2.1 (UTC 2008-12-04)
Аудио
Идентификатор                            : 1
Формат                                   : MPEG Audio
Версия формата                           : Version 1
Профиль формата                          : Layer 3
Режим                                    : Joint stereo
Идентификатор кодека                     : 55
Идентификатор кодека/Подсказка           : MP3
Продолжительность                        : 28 м.
Вид битрейта                             : Переменный
Битрейт                                  : 192 Кбит/сек
Каналы                                   : 2 канала
Частота                                  : 48,0 КГц
Метод сжатия                             : С потерями
Размер потока                            : 38,2 Мбайт (11%)
Выравнивание                             : Соединение по промежуткам
Продолжительность промежутка             : 24  мс. (0,58 видеокадр)
Время предзагрузки промежутка            : 522  мс.
Библиотека кодирования                   : LAME3.97b
Настройки программы                      : -m j -V 4 -q 3 -lowpass 18.6 --abr 192
-

Скриншот c названием фильма

-Скриншоты:
-

Еще

-Добавлена двенадцатая, заключительная, серия седьмого сезона
Яндекс.Метрика
Рейтинг@Mail.ru