Оранжевый - хит сезона / Orange Is the New Black / Сезон: 2 / Серии: 6 из 13 (Майкл Трим / Michael Trim, ...) [2014 г., драма, комедия, криминал, ..., WEB-DLRip] MVO (ViruseProject) [обновляема]

 

Создавать темы 03-Июл-2014 17:13

-Оранжевый - хит сезона / Orange Is the New Black
«Every sentence is a story»
-- Производство: США
Жанр: драма, комедия, криминал, ...
Год выпуска: 2014 г.-Мировая премьера: 11 июля 2013, ...-Релиз: Студия
Перевод: Многоголосый закадровый, профессиональный-Автор перевода: Татьяна Масаковская
Озвучка: Марина Видякина, Елена Емельянова, Анастасия Домнина, Полина Касаткина, Дмитрий Кравченко, Дмитрий Иванов
Постер: Андрей Шапал
Подготовка видео, монтаж, сведение звука: viruse (Виталий Емельянов)-Режиссер: Майкл Трим / Michael Trim, Эндрю МакКарти / Andrew McCarthy, Фил Абрахам / Phil Abraham, ...-В ролях: Тейлор Шиллинг, Даниэль Брукс, Джоэль Гарлэнд, Тэрин Мэннинг, Эмма Майлс, Джессика Пиментел, Дайан Герерро, Эбигейл Сэвадж, Лора Припон, Лолита Фостер, ...-Описание:
История по мотивам книги Пайпер Керман — о девушке, которая вынуждена мотать срок в федеральной тюрьме из-за своей нерадивой гёлфренд - наркодиллерши. Приговоренная на пятнадцати месячный срок и не имея тюремного опыта, она с головой погружается в культуру женской колонии, чтобы пройти через все тяготы тюремной жизни, где она неожиданно находит признание, смех, слезы и любовь.-Сезон: 2
Серии: 6 из 13 серий
Продолжительность: ~ 00:56:00 мин серия-Качество видео: WEB-DLRip
Контейнер: AVI
Видео кодек: XviD
Аудио кодек: MP3
Видео: MPEG-4 Visual at 1365 Кбит/сек: 720 x 400 (1.800) at 23.976 fps: 0.20 Бит/Пиксели
Аудио Rus: MPEG Audio at 192 Кбит/сек: 2 канала, 48,0 КГц |ViruseProject|
Cубтитры: отсутствуют
-
-

Список серий:

  • Птичка хочет пить (Thirsty Bird)
  • Синие взгляды, Красные вкусы (Looks Blue, Tastes Red)
  • Объятия обманывают (Hugs Can Be Deceiving)
  • Совсем другая дырка (A Whole Other Hole)
  • Низкая Самооценка Города (Low Self Esteem City)
  • У Вас также есть пицца (You Also Have a Pizza)


  • Комик Сэнс (Comic Sans)

  • Правильно Подобранные Горшки (Appropriately Sized Pots)

  • 40 унций отпуска (40 OZ of Furlough)

  • Усатый гаденыш (Little Mustachioed Shit)

  • Отвлекитесь от ваших ценностей (Take a Break from Your Values)

  • Это было изменение (It Was the Change)

  • У нас есть манеры. Мы вежливы. (We Have Manners. We're Polite.)
-

Media Info

Общее
Полное имя                               : E:\_Сериалы\_NeW_\Orange.Is.The.New.Black.S02.ViruseProject\Orange.Is.The.New.Black.S02Е01.ViruseProject.avi
Формат                                   : AVI
Формат/Информация                        : Audio Video Interleave
Размер файла                             : 630 Мбайт
Продолжительность                        : 56 м.
Общий поток                              : 1566 Кбит/сек
Программа кодирования                    : VirtualDubMod 1.5.10.2 (build 2540/release)
Библиотека кодирования                   : VirtualDubMod build 2540/release
Видео
Идентификатор                            : 0
Формат                                   : MPEG-4 Visual
Профиль формата                          : Advanced [email protected]
Параметр BVOP формата                    : 1
Параметр QPel формата                    : Нет
Параметр GMC формата                     : Без точки перехода
Параметр матрицы формата                 : Default (MPEG)
Идентификатор кодека                     : XVID
Идентификатор кодека/Подсказка           : XviD
Продолжительность                        : 56 м.
Битрейт                                  : 1365 Кбит/сек
Ширина                                   : 720 пикселей
Высота                                   : 400 пикселей
Соотношение сторон                       : 16:9
Частота кадров                           : 23,976 кадра/сек
Цветовое пространство                    : YUV
Субдискретизация насыщенности            : 4:2:0
Битовая глубина                          : 8 бит
Тип развёртки                            : Прогрессивная
Метод сжатия                             : С потерями
Бит/(Пиксели*Кадры)                      : 0.198
Размер потока                            : 549 Мбайт (87%)
Библиотека кодирования                   : XviD 1.2.1 (UTC 2008-12-04)
Аудио
Идентификатор                            : 1
Формат                                   : MPEG Audio
Версия формата                           : Version 1
Профиль формата                          : Layer 3
Идентификатор кодека                     : 55
Идентификатор кодека/Подсказка           : MP3
Продолжительность                        : 56 м.
Вид битрейта                             : Постоянный
Битрейт                                  : 192 Кбит/сек
Каналы                                   : 2 канала
Частота                                  : 48,0 КГц
Метод сжатия                             : С потерями
Размер потока                            : 77,2 Мбайт (12%)
Выравнивание                             : Разделение по промежуткам
Продолжительность промежутка             : 42  мс. (1,00 видеокадр)
Время предзагрузки промежутка            : 500  мс.
-

Скриншот c названием фильма

-Скриншоты:
-

Еще

-

Внимание! Раздача ведётся путём добавления новых серий!

Внимание! Раздача ведётся путём добавления новых серий; при каждом добавлении создаётся новый торрент. Чтобы начать докачку новой серии, пользователям необходимо сделать следующее:
(1) остановить скачивание,
(2) удалить старый торрент у себя из клиента (старые серии удалять не надо),
(3) скачать новый торрент и запустить его у себя в клиенте вместо старого, при этом указать клиенту путь в старую папку куда и должно происходить скачивание новых серий.
Ваш клиент при этом должен произвести хеширование (проверку) старой папки (если не производит сам - помогите ему сделать это), и будет докачивать только те серии которых у вас ещё нет. Старые серии при этом не удаляются, а продолжают раздаваться!
Eсли вы уже удалили старые серии, то предотвратить повторную закачку старых серий можно, отжав галочку в соответствующих местах при запуске нового торрента.
-Добавлена шестая серия второго сезона
Яндекс.Метрика
Рейтинг@Mail.ru