Токарев / Tokarev (Пако Кабесас / Paco Cabezas) [2014 г., Боевик, триллер, криминал, BDRip, 720p] DVO (Пиратская студия) + Sub (Rus, Eng) + Original (Eng)

 

Создавать темы 03-Июл-2014 16:57

-Токарев / Tokarev- Производство: США, Франция, Hannibal Pictures, Marco Polo Production, Patriot Pictures
Год выпуска: 2014 г.
Жанр: Боевик, триллер, криминал
Продолжительность: 01:38:26
Мировая премьера: 31 января 2014
Перевод: Профессиональный (двухголосый, закадровый) [Пиратская студия]
Оригинальный аудиопоток: английский-Режиссер: Пако Кабесас / Paco Cabezas
В ролях: Николас Кейдж, Рэйчел Николс, Петер Стормаре, Дэнни Гловер, Обри Пиплз, Елена Санчес, Майкл МакГрэйди, Павел Личникофф, Доун Хэмил, Макс Райан-Описание: Пол Магуаер — бывший гангстер, а теперь добропорядочный бизнесмен и примерный семьянин. Но когда его дочь похищают, он вынужден поднять свои старые связи и снова вернуться на скользкую дорожку…- -Качество видео: BDRip
Контейнер: MKV
Стандарт разрешения: 720p
Видео кодек: H.264
Аудио кодек: AC3
Видео: 1280x544 (2.35:1), 4 835 Kbps, 23.976 fps, 0.290 bit/pix
Аудио: 448 Kbps, 6 ch, 48.0 KHz - RUS
Аудио #2: 640 Kbps, 6 ch, 48.0 KHz - ENG
Cубтитры: Russian, English
Формат субтитров: softsub (SRT)
Дополнительно: Сохранены оригинальные чаптеры как на Blu-ray

Media Info

General
Unique ID : 234363742063019940481285080742413625037 (0xB050D09B6FE49CBE9093FEEB414266CD)
Complete name : D:\Tokarev.2014.BDRip.720p.mkv
Format : Matroska
Format version : Version 4 / Version 2
File size : 4.07 GiB
Duration : 1h 38mn
Overall bit rate : 5 923 Kbps
Encoded date : UTC 2014-07-03 07:26:45
Writing application : mkvmerge v6.9.1 ('Blue Panther') 64bit built on Apr 18 2014 18:23:38
Writing library : libebml v1.3.0 + libmatroska v1.4.1
Video
ID : 1
Format : AVC
Format/Info : Advanced Video Codec
Format profile : [email protected]
Format settings, CABAC : Yes
Format settings, ReFrames : 5 frames
Codec ID : V_MPEG4/ISO/AVC
Duration : 1h 38mn
Bit rate : 4 835 Kbps
Width : 1 280 pixels
Height : 544 pixels
Display aspect ratio : 2.35:1
Frame rate mode : Constant
Frame rate : 23.976 fps
Color space : YUV
Chroma subsampling : 4:2:0
Bit depth : 8 bits
Scan type : Progressive
Bits/(Pixel*Frame) : 0.290
Stream size : 3.24 GiB (80%)
Writing library : x264 core 142 r2431 ac76440
Encoding settings : cabac=1 / ref=5 / deblock=1:-1:-1 / analyse=0x3:0x133 / me=umh / subme=8 / psy=1 / psy_rd=1.00:0.15 / mixed_ref=1 / me_range=16 / chroma_me=1 / trellis=1 / 8x8dct=1 / cqm=0 / deadzone=21,11 / fast_pskip=0 / chroma_qp_offset=-4 / threads=18 / lookahead_threads=3 / sliced_threads=0 / nr=0 / decimate=1 / interlaced=0 / bluray_compat=0 / constrained_intra=0 / bframes=3 / b_pyramid=2 / b_adapt=2 / b_bias=0 / direct=3 / weightb=1 / open_gop=0 / weightp=2 / keyint=240 / keyint_min=23 / scenecut=40 / intra_refresh=0 / rc_lookahead=50 / rc=2pass / mbtree=1 / bitrate=4835 / ratetol=1.0 / qcomp=0.60 / qpmin=10 / qpmax=69 / qpstep=4 / cplxblur=20.0 / qblur=0.5 / ip_ratio=1.40 / aq=1:1.00
Language : English
Default : Yes
Forced : No
Audio #1
ID : 2
Format : AC-3
Format/Info : Audio Coding 3
Mode extension : CM (complete main)
Format settings, Endianness : Big
Codec ID : A_AC3
Duration : 1h 38mn
Bit rate mode : Constant
Bit rate : 448 Kbps
Channel(s) : 6 channels
Channel positions : Front: L C R, Side: L R, LFE
Sampling rate : 48.0 KHz
Bit depth : 16 bits
Compression mode : Lossy
Stream size : 316 MiB (8%)
Title : Пиратская Студия
Language : Russian
Default : Yes
Forced : Yes
Audio #2
ID : 3
Format : AC-3
Format/Info : Audio Coding 3
Mode extension : CM (complete main)
Format settings, Endianness : Big
Codec ID : A_AC3
Duration : 1h 38mn
Bit rate mode : Constant
Bit rate : 640 Kbps
Channel(s) : 6 channels
Channel positions : Front: L C R, Side: L R, LFE
Sampling rate : 48.0 KHz
Bit depth : 16 bits
Compression mode : Lossy
Stream size : 451 MiB (11%)
Title : Оригинал
Language : English
Default : No
Forced : No
Text #1
ID : 4
Format : UTF-8
Codec ID : S_TEXT/UTF8
Codec ID/Info : UTF-8 Plain Text
Language : Russian
Default : No
Forced : No
Text #2
ID : 5
Format : UTF-8
Codec ID : S_TEXT/UTF8
Codec ID/Info : UTF-8 Plain Text
Language : English
Default : No
Forced : No
Menu
00:00:00.000 : en:00:00:00.000
00:08:35.598 : en:00:08:35.598
00:16:44.295 : en:00:16:44.295
00:24:59.998 : en:00:24:59.998
00:37:21.448 : en:00:37:21.448
00:42:16.200 : en:00:42:16.200
00:48:20.356 : en:00:48:20.356
00:55:27.032 : en:00:55:27.032
01:07:48.731 : en:01:07:48.731
01:13:20.146 : en:01:13:20.146
01:19:58.711 : en:01:19:58.711
01:27:23.071 : en:01:27:23.071

Скриншоты

Яндекс.Метрика
Рейтинг@Mail.ru