Кровавая месть / In the Blood (Джон Стокуэлл / John Stockwell) [2014 г., Триллер, боевик, криминал, HDRip] Dub (Чистый звук)

 

Создавать темы 03-Июл-2014 16:55

-Кровавая месть / In the Blood- Производство: Великобритания, Пуэрто Рико, Anchor Bay Films, 20th Century Fox Home Entertainment, Movie Package Company (MPC)
Год выпуска: 2014 г.
Жанр: Триллер, боевик, криминал
Продолжительность: 01:47:40
Мировая премьера: 4 апреля 2014
Российская премьера: 12 июня 2014, «Парадиз»
Дата выхода DVD: 5 августа 2014, «Парадиз / Активижен»
Перевод: Профессиональный (полное дублирование) [Чистый звук]-Режиссер: Джон Стокуэлл / John Stockwell
В ролях: Джина Карано, Кэм Жиганде, Исмаэль Круз, Луис Гусман, Дэнни Трехо, Трит Уильямс, Амори Ноласко, Стивен Лэнг, Ивет Йэтс, Элоиза Мамфорд-Описание: Сильная и красивая Ава мечтала провести с мужем счастливый отпуск на райских Карибских островах на берегу океана… В одно мгновение все превратилось в ад. После загадочного исчезновения мужа Ава начинает расследование. Во что бы то ни стало, она найдет людей, которые похитили и убили ее возлюбленного. Гнев женщины в горе не знает предела…- -Качество видео: HDRip
Контейнер: AVI
Видео кодек: XviD
Аудио кодек: AC3
Видео: 720x384 (1.88:1), 23.976 fps, XviD build 50 ~1424 kbps avg, 0.22 bit/pixel
Аудио: 48 kHz, AC3 Dolby Digital, 2/0 (L,R) ch, ~384 kbps
Cубтитры: отсутствуют

Media Info

General
Complete name : D:\Krovavvaya.Mest.2014.D.HDRip.1400Mb.avi
Format : AVI
Format/Info : Audio Video Interleave
File size : 1.37 GiB
Duration : 1h 47mn
Overall bit rate : 1 818 Kbps
Writing application : VirtualDubMod 1.5.10.2 (build 2540/release)
Writing library : VirtualDubMod build 2540/release
Video
ID : 0
Format : MPEG-4 Visual
Format profile : Advanced [email protected]
Format settings, BVOP : 2
Format settings, QPel : No
Format settings, GMC : No warppoints
Format settings, Matrix : Custom
Codec ID : XVID
Codec ID/Hint : XviD
Duration : 1h 47mn
Bit rate : 1 425 Kbps
Width : 720 pixels
Height : 384 pixels
Display aspect ratio : 1.85:1
Frame rate : 23.976 fps
Color space : YUV
Chroma subsampling : 4:2:0
Bit depth : 8 bits
Scan type : Progressive
Compression mode : Lossy
Bits/(Pixel*Frame) : 0.215
Stream size : 1.07 GiB (78%)
Writing library : XviD 1.2.1 (UTC 2008-12-04)
Audio
ID : 1
Format : AC-3
Format/Info : Audio Coding 3
Mode extension : CM (complete main)
Format settings, Endianness : Big
Codec ID : 2000
Duration : 1h 47mn
Bit rate mode : Constant
Bit rate : 384 Kbps
Channel(s) : 2 channels
Channel positions : Front: L R
Sampling rate : 48.0 KHz
Bit depth : 16 bits
Compression mode : Lossy
Stream size : 296 MiB (21%)
Alignment : Split accross interleaves
Interleave, duration : 42 ms (1.00 video frame)
Interleave, preload duration : 500 ms

Скриншоты

Яндекс.Метрика
Рейтинг@Mail.ru