Добро пожаловать в Коллинвуд / Welcome to Collinwood (Энтони Руссо, Джо Руссо/Anthony Russo, Joe Russo) [2002, Комедия, криминал, DVDRip]

 

Создавать темы 03-Июл-2014 16:47

-Добро пожаловать в Коллинвуд / Welcome to Collinwood- Год выпуска: 2002
Производство: США, Германия
Жанр: Комедия, криминал
Режиссер: Энтони Руссо, Джо Руссо
Актеры: Джордж Клуни, Уильям Х. Мэйси, Исайя Вашингтон, Сэм Рокуэлл, Майкл Джитер, Луис Гузман, Джон Бак мл., Патришия Кларксон, Эндрю Дэволи, Бретт С. Леонард, Фрэнк О’Доннелл
Описание фильма:
Мелкий воришка Косимо попался на автомобильной краже. В тюрьме он неожиданно узнаёт от своего сокамерника, отбывающего пожизненное заключение, о существовании надёжно спрятанного сейфа, в котором лежат целых 300 тысяч долларов - настоящий Куш! Взять этот сейф - пара пустяков, главное - поскорее выбраться из тюрьмы. А для этого нужно найти какого-нибудь отчаявшегося парня, который согласится всего за 15 тысяч взять вину Косимо на себя и отсидеть за него срок. Но таких отчаявшихся в славном городке Коллинвуд оказывается несколько больше, чем ожидал Косимо...
Перевод: Дублированный
Субтитры: Отсутствуют
Продолжительность: 01:22:26
Качество видео: DVDRip
Видеокодек: XviD
Битрейт видео: ~1123 Кбит/с
Размер кадра: 720x304
Аудиокодек: MP3 2 ch
Битрейт аудио: 128 Кбит/с

MediaInfo:

Общее
Формат                                   : AVI
Формат/Информация                        : Audio Video Interleave
Размер файла                             : 743 Мбайт
Продолжительность                        : 1 ч. 22 м.
Общий поток                              : 1260 Кбит/сек
Программа кодирования                    : VirtualDubMod 1.5.10.2 (build 2540/release)
Библиотека кодирования                   : VirtualDubMod build 2540/release
[br]
Видео
Идентификатор                            : 0
Формат                                   : MPEG-4 Visual
Профиль формата                          : Advanced [email protected]
Параметр BVOP формата                    : 1
Параметр QPel формата                    : Нет
Параметр GMC формата                     : Без точки перехода
Параметр матрицы формата                 : Выборочная
Идентификатор кодека                     : XVID
Идентификатор кодека/Подсказка           : XviD
Продолжительность                        : 1 ч. 22 м.
Битрейт                                  : 1123 Кбит/сек
Ширина                                   : 720 пикселей
Высота                                   : 304 пикселя
Соотношение сторон                       : 2,35:1
Частота кадров                           : 25,000 кадров/сек
Цветовое пространство                    : YUV
Субдискретизация насыщенности            : 4:2:0
Битовая глубина                          : 8 бит
Тип развёртки                            : Прогрессивная
Метод сжатия                             : С потерями
Бит/(Пиксели*Кадры)                      : 0.205
Размер потока                            : 662 Мбайт (89%)
Библиотека кодирования                   : XviD 1.2.1 (UTC 2008-12-04)
[br]
Аудио
Идентификатор                            : 1
Формат                                   : MPEG Audio
Версия формата                           : Version 1
Профиль формата                          : Layer 3
Идентификатор кодека                     : 55
Идентификатор кодека/Подсказка           : MP3
Продолжительность                        : 1 ч. 22 м.
Вид битрейта                             : Постоянный
Битрейт                                  : 128 Кбит/сек
Каналы                                   : 2 канала
Частота                                  : 48,0 КГц
Метод сжатия                             : С потерями
Размер потока                            : 75,4 Мбайт (10%)
Выравнивание                             : Соединение по промежуткам
Продолжительность промежутка             : 40  мс. (1,00 видеокадр)
Время предзагрузки промежутка            : 504  мс.
Библиотека кодирования                   : LAME3.98r
Скриншоты:
Яндекс.Метрика
Рейтинг@Mail.ru