Кризис / Crisis (Сезон 1 / полный / серии: 13 из 13) (Джошуа Батлер / Joshua Butler ...) [2014г., боевик, триллер, драма, WEB-DLRip] MVO (NewStudio) + Original (Eng)

 

Создавать темы 02-Июл-2014 19:22

Кризис / Crisis- Русское название: Кризис
Оригинальное название: Crisis
Страна: США
Год выпуска: 2014
Жанр: фантастика, триллер, ...-Релиз: Студия NewStudio
Перевод: Профессиональный (многоголосый, закадровый)
Оригинальный аудиопоток: английский-Автор перевода: Дмитрий Какабадзе
Постер: Vortex-Премьера (мир): 16 марта 2014-Режиссер: Джошуа Батлер / Joshua Butler, Стивен ДеПол / Steven DePaul , Фредерик Кинг Келлер / Frederick King Keller, ...
В главных ролях: Джиллиан Андерсон, Дермот Малруни, Лэнс Гросс, Рэйчел Тейлор, Стиви Линн Джонс, Хелстон Сейдж, Джошуа Эренберг, Макс Шнайдер, Джеймс Лэфферти, Макс Мартини, ...-Описание фильма:
Чтобы поставить на колени самых могущественных людей мира заберите у них самое дорогое — детей. Учащиеся спецшколы для детей элиты (включая международных дипломатов, топ-менеджеров глобальных корпораций и даже сына президента США) отправляются в тренировочно-спортивный лагерь, но становятся заложниками в большой игре…-Сезон: 1
Серии: 13 из 13 серий
Продолжительность: ~ 00:44:00 мин серия-Качество видео: WEB-DLRip
Формат: AVI
Видеокодек: XviD
Аудиокодек: Mp3
Видео: MPEG-4 Visual at 1342 Кбит/сек: 720 x 400 (1.800) at 23.976 fps, 0.214 Бит/Пиксели
Аудио Rus: MPEG Audio at 128 Кбит/сек: 2 канала, 48,0 КГц |NewStudio|
Аудио Eng: MPEG Audio at 128 Кбит/сек: 2 канала, 48,0 КГц |Original|
- -

Список серий:

  • Пилот (Pilot)
  • Если вы это смотрите, значит я мёртв (If You Are Watching This I Am Dead)
  • То, что сделали с вами (What Was Done to You)
  • Мы должны помогать друг другу (We Were Supposed to Help Each Other)
  • Вынужденные союзники (Designated Allies)
  • А вот и он (Here He Comes)
  • Выпускной (Homecoming)
  • Как далеко ты зайдешь (How Far Would You Go)
  • Ты не знаешь, что такое война (You Do Not Know War)
  • Найдены (Found)
  • Наилучший план (Best Laid Plans)
  • Этого не должно было случиться (This Wasn't Supposed to Happen)
  • Лучший в мире отец (World's Best Dad)
-

MediaInfo:

Общее
Полное имя                               : E:\_Сериалы\000\Кризис\Crisis-1(NewStudio)\Crisis.s01e01.WEBDLRip.NewStudio.TV.avi
Формат                                   : AVI
Формат/Информация                        : Audio Video Interleave
Размер файла                             : 498 Мбайт
Продолжительность                        : 43 м.
Общий поток                              : 1612 Кбит/сек
Программа кодирования                    : VirtualDubMod 1.5.10.2 (build 2540/release)
Библиотека кодирования                   : VirtualDubMod build 2540/release
Видео
Идентификатор                            : 0
Формат                                   : MPEG-4 Visual
Профиль формата                          : Advanced [email protected]
Параметр BVOP формата                    : 2
Параметр QPel формата                    : Нет
Параметр GMC формата                     : Без точки перехода
Параметр матрицы формата                 : Default (MPEG)
Идентификатор кодека                     : XVID
Идентификатор кодека/Подсказка           : XviD
Продолжительность                        : 43 м.
Битрейт                                  : 1342 Кбит/сек
Ширина                                   : 720 пикселей
Высота                                   : 400 пикселей
Соотношение сторон                       : 16:9
Частота кадров                           : 23,976 кадра/сек
Цветовое пространство                    : YUV
Субдискретизация насыщенности            : 4:2:0
Битовая глубина                          : 8 бит
Тип развёртки                            : Прогрессивная
Метод сжатия                             : С потерями
Бит/(Пиксели*Кадры)                      : 0.194
Размер потока                            : 415 Мбайт (83%)
Библиотека кодирования                   : XviD 64
Аудио #1
Идентификатор                            : 1
Формат                                   : MPEG Audio
Версия формата                           : Version 1
Профиль формата                          : Layer 3
Режим                                    : Joint stereo
Расширение режима                        : MS Stereo
Идентификатор кодека                     : 55
Идентификатор кодека/Подсказка           : MP3
Продолжительность                        : 43 м.
Вид битрейта                             : Постоянный
Битрейт                                  : 128 Кбит/сек
Каналы                                   : 2 канала
Частота                                  : 48,0 КГц
Метод сжатия                             : С потерями
Размер потока                            : 39,6 Мбайт (8%)
Выравнивание                             : Соединение по промежуткам
Продолжительность промежутка             : 42  мс. (1,00 видеокадр)
Время предзагрузки промежутка            : 504  мс.
Аудио #2
Идентификатор                            : 2
Формат                                   : MPEG Audio
Версия формата                           : Version 1
Профиль формата                          : Layer 3
Режим                                    : Joint stereo
Расширение режима                        : MS Stereo
Идентификатор кодека                     : 55
Идентификатор кодека/Подсказка           : MP3
Продолжительность                        : 43 м.
Вид битрейта                             : Постоянный
Битрейт                                  : 128 Кбит/сек
Каналы                                   : 2 канала
Частота                                  : 48,0 КГц
Метод сжатия                             : С потерями
Размер потока                            : 39,6 Мбайт (8%)
Выравнивание                             : Соединение по промежуткам
Продолжительность промежутка             : 42  мс. (1,00 видеокадр)
Время предзагрузки промежутка            : 504  мс.
-

Скриншот c названием фильма

-Скриншоты:
-

Еще

-Добавлена тринадцатая, заключительная, серия первого сезона
Яндекс.Метрика
Рейтинг@Mail.ru