Comedy Баттл. Суперсезон / Серии: 1-14 из ? (Кирилл Пухонто) [2014 г., ТВ-шоу, юмор, импровизация, WEB-DL] [обновляемая]

 

Создавать темы 02-Июл-2014 19:16

-Comedy Баттл. Суперсезон- Производство: Россия, ТНТ
Жанр: ТВ-шоу, юмор, импровизация
Год выпуска: 2014 г.
Продолжительность: ~00:48:00-Режиссер: Кирилл Пухонто
В ролях: Павел Воля, Семен Слепаков, Сергей Светлаков и Гарик Мартиросян-Описание:-«Comedy Баттл. Суперсезон» - это почти 200 участников, прошедших кастинги в Саратове, Воронеже, Ростове-на-Дону, Нижнем Новгороде, Екатеринбурге, Иркутске, Красноярске, Омске, Санкт-Петербурге, Москве, Киеве и Минске. Многие из участников уже хорошо знакомы телезрителям ТНТ по участию в прошлых сезонах.- -Качество видео: WEB-DL
Контейнер: AVI
Видео кодек: XviD
Аудио кодек: MP3
Видео: 720x400 (1.80:1), 25 fps, XviD build 64 ~1641 kbps avg, 0.23 bit/pixel
Аудио: 44.100 kHz, MPEG Layer 3, 2 ch, ~128.00 kbps avg
Cубтитры: отсутствуют

Media Info

General
Complete name                            : D:\Comedy.Battl.SuperSezon.(2014).WEBRip\Comedy.Battl.SuperSezon.(04.04.2014).WEBRip.avi
Format                                   : AVI
Format/Info                              : Audio Video Interleave
File size                                : 611 MiB
Duration                                 : 47mn 57s
Overall bit rate                         : 1 782 Kbps
Writing application                      : Lavf55.21.100
Video
ID                                       : 0
Format                                   : MPEG-4 Visual
Format profile                           : [email protected]
Format settings, BVOP                    : No
Format settings, QPel                    : No
Format settings, GMC                     : No warppoints
Format settings, Matrix                  : Default (H.263)
Codec ID                                 : XVID
Codec ID/Hint                            : XviD
Duration                                 : 47mn 57s
Bit rate                                 : 1 642 Kbps
Width                                    : 720 pixels
Height                                   : 400 pixels
Display aspect ratio                     : 16:9
Frame rate                               : 25.000 fps
Color space                              : YUV
Chroma subsampling                       : 4:2:0
Bit depth                                : 8 bits
Scan type                                : Progressive
Compression mode                         : Lossy
Bits/(Pixel*Frame)                       : 0.228
Stream size                              : 563 MiB (92%)
Writing library                          : XviD 64
Audio
ID                                       : 1
Format                                   : MPEG Audio
Format version                           : Version 1
Format profile                           : Layer 3
Mode                                     : Joint stereo
Mode extension                           : MS Stereo
Codec ID                                 : 55
Codec ID/Hint                            : MP3
Duration                                 : 47mn 57s
Bit rate mode                            : Constant
Bit rate                                 : 128 Kbps
Channel(s)                               : 2 channels
Sampling rate                            : 44.1 KHz
Compression mode                         : Lossy
Stream size                              : 43.9 MiB (7%)
Alignment                                : Aligned on interleaves
Interleave, duration                     : 26 ms (0.65 video frame)
Interleave, preload duration             : 26 ms
Writing library                          : LAME3.99.5ЄЄЄЄЄЄЄЄЄЄ

Скриншоты

Внимание! Раздача ведётся путём добавления новых серий!

при каждом добавлении создётся новый торрент. Чтобы начать докачку новой серии, пользователям необходимо сделать следующее:
(1) остановить скачивание,
(2) удалить старый торрент у себя из клиента (старые серии удалять не надо),
(3) скачать новый торрент и запустить его у себя в клиенте, при этом указать клиенту путь в старую папку куда и должно происходить скачивание новых серий.
Ваш клиент при этом должен произвести хеширование (проверку) старой папки и будет докачивать только те серии которых у вас ещё нет. Старые серии при этом не удаляются, а продолжают раздаваться!
Eсли вы уже удалили старые серии, то предотвратить повторную закачку старых серий можно, отжав галочку в соответствующих местах при запуске нового торрента. (по возможности, желательно не удалять старые серии как можно дольше чтобы релизёр не столько продолжал раздавать старые серии, а смог сконцентрироваться на новых)
/spoiler]
Яндекс.Метрика
Рейтинг@Mail.ru