[ Сегодня на трекере фрилич! Идет свободное скачивание без начисления Download ]

(Pop-Rock & Soft Rock) Smokie - Legends (3CD) - 2005, FLAC (image+.cue), lossless

 

Создавать темы 02-Июл-2014 19:02

--Smokie - Legends (3CD)-- Жанр: Pop-Rock & Soft Rock
Год выпуска диска: 2005
Производитель диска: Made in the EU Sony/BMG
Аудио кодек: FLAC
Тип рипа: image+.cue
Битрейт аудио: lossless
Продолжительность: 02:39:59

Smokie Legends CD1

Трэклист:
CD: Smokie - Legends (Disc 1)
YEAR: 2005
01. Living Next Door To Alice [0:03:29.45]
02. If You Think You Know How To Love Me [0:03:26.34]
03. I'll Meet You At Midnight [0:03:16.72]
04. Lay Back In The Arms Of Someone [0:04:06.53]
05. It's Your Life [0:03:34.48]
06. Pass It Around [0:03:08.01]
07. Daydreamin' [0:02:17.42]
08. Oh Well, Oh Well [0:03:18.10]
09. I Do Declare [0:03:45.56]
10. Headspin [0:03:31.50]
11. It's Natural [0:02:39.46]
12. We're Flyin' High [0:03:54.44]
13. Changing All The Time [0:03:23.42]
14. Wild Wild Angel [0:03:57.12]
15. Will You Love Me [0:03:45.16]
Total 51:35.46

CD1

Отчет ЕАС CD1

Exact Audio Copy V0.99 prebeta 4 from 23. January 2008
Отчёт EAC об извлечении, выполненном 28. сентября 2008, 17:43
Smokie / Legends (Disc 1)
Дисковод: PLEXTOR DVDR PX-716A Adapter: 0 ID: 0
Режим чтения : Достоверность
Использование точного потока : Да
Отключение кэша аудио : Да
Использование указателей C2 : Нет
Коррекция смещения при чтении : 30
Способность читать области Lead-in и Lead-out : Нет
Заполнение пропущенных сэмплов тишиной : Да
Удаление блоков с тишиной в начале и конце : Нет
При вычислениях CRC использовались нулевые сэмплы : Да
Интерфейс : Встроенный Win32-интерфейс для Win NT/2000
Выходной формат : Пользовательский кодировщик
Выбранный битрейт : 128 kBit/s
Качество : Высокий
Добавление ID3-тэга : Нет
Утилита сжатия : C:\Program Files\FLAC\flac.exe
Дополнительные параметры : -8 -V -T "ARTIST=%a" -T "TITLE=%t" -T "ALBUM=%g" -T "DATE=%y" -T "TRACKNUMBER=%n" -T "GENRE=%m" -T "COMMENT=EAC FLAC -8" %s
TOC извлечённого CD
Трек | Старт | Длительность | Начальный сектор | Конечный сектор
---------------------------------------------------------------------
1 | 0:00.00 | 3:29.45 | 0 | 15719
2 | 3:29.45 | 3:26.34 | 15720 | 31203
3 | 6:56.04 | 3:16.72 | 31204 | 45975
4 | 10:13.01 | 4:06.53 | 45976 | 64478
5 | 14:19.54 | 3:34.48 | 64479 | 80576
6 | 17:54.27 | 3:08.01 | 80577 | 94677
7 | 21:02.28 | 2:17.42 | 94678 | 104994
8 | 23:19.70 | 3:18.10 | 104995 | 119854
9 | 26:38.05 | 3:45.56 | 119855 | 136785
10 | 30:23.61 | 3:31.50 | 136786 | 152660
11 | 33:55.36 | 2:39.46 | 152661 | 164631
12 | 36:35.07 | 3:54.44 | 164632 | 182225
13 | 40:29.51 | 3:23.42 | 182226 | 197492
14 | 43:53.18 | 3:57.12 | 197493 | 215279
15 | 47:50.30 | 3:45.16 | 215280 | 232170
Характеристики диапазона извлечения и сообщения об ошибках
Выбранный диапазон
Имя файла E:\EAC rip\Smokie - Legends (Disc 1).wav
Пиковый уровень 96.6 %
Качество диапазона 100.0 %
CRC теста 9530C926
CRC копии 9530C926
Копирование... OK
Ошибок не произошло
AccurateRip: сводка
Трек 1 точное извлечение (доверие 2) [E0905F14]
Трек 2 точное извлечение (доверие 2) [C42EA915]
Трек 3 точное извлечение (доверие 2) [4A09FA32]
Трек 4 точное извлечение (доверие 2) [6EF796E5]
Трек 5 точное извлечение (доверие 2) [6ABAF77B]
Трек 6 точное извлечение (доверие 2) [2360E7F5]
Трек 7 точное извлечение (доверие 2) [42F82B9C]
Трек 8 точное извлечение (доверие 2) [56D7EF6C]
Трек 9 точное извлечение (доверие 2) [91739F18]
Трек 10 точное извлечение (доверие 2) [76FC38F3]
Трек 11 точное извлечение (доверие 2) [D015E884]
Трек 12 точное извлечение (доверие 2) [08387405]
Трек 13 точное извлечение (доверие 2) [2982AAEA]
Трек 14 точное извлечение (доверие 2) [6C8A03FC]
Трек 15 точное извлечение (доверие 2) [50B4F072]
Все треки извлечены точно
Конец отчёта

Smokie Legends CD2

Трэклист:
CD: Smokie - Legends (Disc 2)
YEAR: 2005
01. Oh Carol [0:03:41.61]
02. Don't Play Your Rock 'N Roll To Me [0:03:18.50]
03. Something's Been Making Me Blue [0:03:01.66]
04. When My Back Was Against The Wall [0:03:36.32]
05. Little Lucy [0:03:46.52]
06. I Can't Stay Here Tonight [0:04:08.18]
07. Sunshine Avenue [0:03:11.50]
08. Light Up My Life [0:04:26.00]
09. Baby It's You [0:03:51.64]
10. The Other Side Of The Road [0:03:53.39]
11. Don't Take Your Love Away This Time [0:03:14.31]
12. Too Many Pennies In Hell [0:01:18.01]
13. Walk Right Back [0:05:31.53]
14. Rock 'N Roll Woman [0:04:16.56]
15. Your Love Is So Good For Me [0:04:08.22]
Total: 55:25.70

CD2

Отчет ЕАС CD2

Exact Audio Copy V0.99 prebeta 4 from 23. January 2008
Отчёт EAC об извлечении, выполненном 27. сентября 2008, 14:23
Smokie / Legends (Disc 2)
Дисковод: PLEXTOR DVDR PX-716A Adapter: 0 ID: 0
Режим чтения : Достоверность
Использование точного потока : Да
Отключение кэша аудио : Да
Использование указателей C2 : Нет
Коррекция смещения при чтении : 30
Способность читать области Lead-in и Lead-out : Нет
Заполнение пропущенных сэмплов тишиной : Да
Удаление блоков с тишиной в начале и конце : Нет
При вычислениях CRC использовались нулевые сэмплы : Да
Интерфейс : Встроенный Win32-интерфейс для Win NT/2000
Выходной формат : Пользовательский кодировщик
Выбранный битрейт : 128 kBit/s
Качество : Высокий
Добавление ID3-тэга : Нет
Утилита сжатия : C:\Program Files\FLAC\flac.exe
Дополнительные параметры : -8 -V -T "ARTIST=%a" -T "TITLE=%t" -T "ALBUM=%g" -T "DATE=%y" -T "TRACKNUMBER=%n" -T "GENRE=%m" -T "COMMENT=EAC FLAC -8" %s
TOC извлечённого CD
Трек | Старт | Длительность | Начальный сектор | Конечный сектор
---------------------------------------------------------------------
1 | 0:00.00 | 3:41.61 | 0 | 16635
2 | 3:41.61 | 3:18.50 | 16636 | 31535
3 | 7:00.36 | 3:01.66 | 31536 | 45176
4 | 10:02.27 | 3:36.32 | 45177 | 61408
5 | 13:38.59 | 3:46.52 | 61409 | 78410
6 | 17:25.36 | 4:08.18 | 78411 | 97028
7 | 21:33.54 | 3:11.50 | 97029 | 111403
8 | 24:45.29 | 4:26.00 | 111404 | 131353
9 | 29:11.29 | 3:51.64 | 131354 | 148742
10 | 33:03.18 | 3:53.39 | 148743 | 166256
11 | 36:56.57 | 3:14.31 | 166257 | 180837
12 | 40:11.13 | 1:18.01 | 180838 | 186688
13 | 41:29.14 | 5:31.53 | 186689 | 211566
14 | 47:00.67 | 4:16.56 | 211567 | 230822
15 | 51:17.48 | 4:08.22 | 230823 | 249444
Характеристики диапазона извлечения и сообщения об ошибках
Выбранный диапазон
Имя файла E:\EAC rip\Smokie - Legends (Disc 2).wav
Пиковый уровень 96.6 %
Качество диапазона 100.0 %
CRC теста 6769438F
CRC копии 6769438F
Копирование... OK
Ошибок не произошло
AccurateRip: сводка
Трек 1 точное извлечение (доверие 2) [CB63D12E]
Трек 2 точное извлечение (доверие 2) [39F27EA5]
Трек 3 точное извлечение (доверие 2) [F8170D2E]
Трек 4 точное извлечение (доверие 2) [EF4BCBC1]
Трек 5 точное извлечение (доверие 2) [398BAAD5]
Трек 6 точное извлечение (доверие 2) [8AF83A48]
Трек 7 точное извлечение (доверие 2) [0B83AEBA]
Трек 8 точное извлечение (доверие 2) [3BBDE54B]
Трек 9 точное извлечение (доверие 2) [0E43D0C4]
Трек 10 точное извлечение (доверие 2) [5BC4932B]
Трек 11 точное извлечение (доверие 2) [A691AF9D]
Трек 12 точное извлечение (доверие 2) [934585C9]
Трек 13 точное извлечение (доверие 2) [5E7678BD]
Трек 14 точное извлечение (доверие 2) [4598B65B]
Трек 15 точное извлечение (доверие 2) [47E64017]
Все треки извлечены точно
Конец отчёта

Smokie Legends CD3

Трэклист:
CD: Smokie - Legends (Disc 3)
01. Needles And Pins [0:02:46.04]
02. For A Few Dollars More [0:03:35.33]
03. Mexican Girl [0:03:59.28]
04. Take Good Care Of My Baby [0:03:25.06]
05. Do To Me [0:03:21.24]
06. Babe It's Up To You [0:03:44.67]
07. San Francisco Bay [0:03:18.15]
08. Run To Me [0:04:13.32]
09. Little Town Flirt [0:03:27.55]
10. The Dancer [0:03:52.27]
11. Don't Turn Out Your Light [0:04:01.55]
12. The Coldest Night [0:04:15.57]
13. A Day At The Mother-In-Law's [0:02:51.65]
14. Jet Lagged [0:03:00.46]
15. Jullie [0:03:03.62]
Total 52:57.51

CD3

Отчет ЕАС CD3

Exact Audio Copy V0.99 prebeta 4 from 23. January 2008
Отчёт EAC об извлечении, выполненном 28. сентября 2008, 20:17
Smokie / Legends (Disc 3)
Дисковод: PLEXTOR DVDR PX-716A Adapter: 0 ID: 0
Режим чтения : Достоверность
Использование точного потока : Да
Отключение кэша аудио : Да
Использование указателей C2 : Нет
Коррекция смещения при чтении : 30
Способность читать области Lead-in и Lead-out : Нет
Заполнение пропущенных сэмплов тишиной : Да
Удаление блоков с тишиной в начале и конце : Нет
При вычислениях CRC использовались нулевые сэмплы : Да
Интерфейс : Встроенный Win32-интерфейс для Win NT/2000
Выходной формат : Пользовательский кодировщик
Выбранный битрейт : 128 kBit/s
Качество : Высокий
Добавление ID3-тэга : Нет
Утилита сжатия : C:\Program Files\FLAC\flac.exe
Дополнительные параметры : -8 -V -T "ARTIST=%a" -T "TITLE=%t" -T "ALBUM=%g" -T "DATE=%y" -T "TRACKNUMBER=%n" -T "GENRE=%m" -T "COMMENT=EAC FLAC -8" %s
TOC извлечённого CD
Трек | Старт | Длительность | Начальный сектор | Конечный сектор
---------------------------------------------------------------------
1 | 0:00.00 | 2:46.04 | 0 | 12453
2 | 2:46.04 | 3:35.33 | 12454 | 28611
3 | 6:21.37 | 3:59.28 | 28612 | 46564
4 | 10:20.65 | 3:25.06 | 46565 | 61945
5 | 13:45.71 | 3:21.24 | 61946 | 77044
6 | 17:07.20 | 3:44.67 | 77045 | 93911
7 | 20:52.12 | 3:18.15 | 93912 | 108776
8 | 24:10.27 | 4:13.32 | 108777 | 127783
9 | 28:23.59 | 3:27.55 | 127784 | 143363
10 | 31:51.39 | 3:52.27 | 143364 | 160790
11 | 35:43.66 | 4:01.55 | 160791 | 178920
12 | 39:45.46 | 4:15.57 | 178921 | 198102
13 | 44:01.28 | 2:51.65 | 198103 | 210992
14 | 46:53.18 | 3:00.46 | 210993 | 224538
15 | 49:53.64 | 3:03.62 | 224539 | 238325
Характеристики диапазона извлечения и сообщения об ошибках
Выбранный диапазон
Имя файла E:\EAC rip\Smokie - Legends (Disc 3).wav
Пиковый уровень 96.6 %
Качество диапазона 100.0 %
CRC теста 1CC34C29
CRC копии 1CC34C29
Копирование... OK
Ошибок не произошло
AccurateRip: сводка
Трек 1 точное извлечение (доверие 2) [73C7D580]
Трек 2 точное извлечение (доверие 2) [B15CFBD6]
Трек 3 точное извлечение (доверие 2) [26CEA7B2]
Трек 4 точное извлечение (доверие 2) [8964C2E5]
Трек 5 точное извлечение (доверие 2) [F9257D53]
Трек 6 точное извлечение (доверие 2) [964F3249]
Трек 7 точное извлечение (доверие 2) [DA73ECCE]
Трек 8 точное извлечение (доверие 2) [9DF3BF77]
Трек 9 точное извлечение (доверие 2) [FDA27F32]
Трек 10 точное извлечение (доверие 2) [D3104EA3]
Трек 11 точное извлечение (доверие 2) [B4B3ED8B]
Трек 12 точное извлечение (доверие 2) [05CB8B49]
Трек 13 точное извлечение (доверие 2) [E9A50CDC]
Трек 14 точное извлечение (доверие 2) [2853612A]
Трек 15 точное извлечение (доверие 2) [EDE71B6D]
Все треки извлечены точно
Конец отчёта
Яндекс.Метрика
Рейтинг@Mail.ru