[ Сегодня на трекере фрилич! Идет свободное скачивание без начисления Download ]

Из пекла / Out of the Furnace (2013) DVDScr [EN]

 

Создавать темы 02-Июл-2014 08:04

Из пекла / Out of the Furnace (2013) DVDScr-«Sometimes your battles choose you»- Год выпуска: 2013
Производство: США, Великобритания | Energy Entertainment
Жанр: Триллер, драма, криминал
Перевод: Отсутствует
Язык: Английский
Субтитры: Отсутствуют
Режиссер: Скотт Купер
Актеры: Кристиан Бэйл, Вуди Харрельсон, Кейси Аффлек, Форест Уитакер, Уиллем Дефо, Зои Салдана, Сэм Шепард, Дендри Тейлор, Карл Киарфалио, Нэнси Моссе
Описание фильма:
Действие фильма разворачивается в 2008 году в штате Индиана. В центре сюжета — история осужденного за убийство человека, который, выйдя из тюрьмы на свободу после четырех лет, проведенных за решеткой, пытается адаптироваться к новой жизни и, наконец-то, исполнить давно данное им обещание жениться на любимой девушке. Однако, в конце концов, он все-таки решает отложить эти радужные планы и сначала отомстить за убийство своего младшего брата.

Дата мировой премьеры: 9 ноября 2013
Дата российской премьеры: 6 февраля 2014, «Наше Кино»
Продолжительность: 01:56:05
Качество видео: DVDScr
Видеокодек: XviD build 50
Битрейт видео: 29.970 fps, ~710 kbps avg, 0.136 bit/pixel
Размер кадра: 640x272 (2.35:1)
Аудио: MP3 2.0, 128 kbps - Английский

MediaInfo

Общее
Полное имя                               : D:\Фильмы\Out.Of.The.Furnace.2013.DVDSCR.avi
Формат                                   : AVI
Формат/Информация                        : Audio Video Interleave
Размер файла                             : 707 Мбайт
Продолжительность                        : 1 ч. 56 м.
Общий поток                              : 852 Кбит/сек
[br]
Видео
Идентификатор                            : 0
Формат                                   : MPEG-4 Visual
Профиль формата                          : Advanced [email protected]
Параметр BVOP формата                    : 2
Параметр QPel формата                    : Нет
Параметр GMC формата                     : Без точки перехода
Параметр матрицы формата                 : Default (H.263)
Идентификатор кодека                     : XVID
Идентификатор кодека/Подсказка           : XviD
Продолжительность                        : 1 ч. 56 м.
Битрейт                                  : 710 Кбит/сек
Ширина                                   : 640 пикселей
Высота                                   : 272 пикселя
Соотношение сторон                       : 2,35:1
Частота кадров                           : 29,970 кадров/сек
Цветовое пространство                    : YUV
Субдискретизация насыщенности            : 4:2:0
Битовая глубина                          : 8 бит
Тип развёртки                            : Прогрессивная
Метод сжатия                             : С потерями
Бит/(Пиксели*Кадры)                      : 0.136
Размер потока                            : 590 Мбайт (83%)
Библиотека кодирования                   : XviD 1.2.1 (UTC 2008-12-04)
[br]
Аудио
Идентификатор                            : 1
Формат                                   : MPEG Audio
Версия формата                           : Version 1
Профиль формата                          : Layer 3
Идентификатор кодека                     : 55
Идентификатор кодека/Подсказка           : MP3
Продолжительность                        : 1 ч. 56 м.
Продолжительность оригинала              : 1 ч. 56 м.
Вид битрейта                             : Постоянный
Битрейт                                  : 128 Кбит/сек
Каналы                                   : 2 канала
Частота                                  : 44,1 КГц
Метод сжатия                             : С потерями
Размер потока                            : 106 Мбайт (15%)
Выравнивание                             : Разделение по промежуткам
Продолжительность промежутка             : 26  мс. (0,78 видеокадр)
Скриншоты:
Время раздачи: Круглосуточно (До 5-ти скачавших )

Яндекс.Метрика
Рейтинг@Mail.ru