Va-банк / Runner Runner (Брэд Фурман) (Триллер, Драма, Криминал 2013) WEB-DLRip [Звук с CAMRip]

 

Создавать темы 02-Июл-2014 08:00

Va-банк / Runner Runner- Год выпуска: 2013
Производство: США, Appian Way, Double Feature Films, New Regency Pictures
Жанр: Триллер, Драма, Криминал
Перевод: Дублированный [Звук с CAMRip]
Субтитры: Отсутствуют
Примечание: Отсутсвует около 3х минут перевода!
Дата мировой премьеры: 18 сентября 2013
Дата российской премьеры: 26 сентября 2013, «Двадцатый Век Фокс
Дата выхода DVD релиза: 6 февраля 2014, «Двадцатый Век Фокс СНГ»
Режиссер: Брэд Фурман
Продюсер: Леонардо ДиКаприо, Дженнифер Дэвиссон, Брайан Коппельман
Актеры: Джастин Тимберлэйк, Бен Аффлек, Джемма Артертон, Энтони Маки, Майкл Эспер, Оливер Купер, Кристиан Джордж, Юл Васкез, Джон Хёрд, Джеймс Молина
Описание фильма:Чтобы оплачивать учёбу в колледже, Ричи погружается в мир азартных игр онлайн. Когда удача изменяет ему, он отправляется на Коста-Рику, чтобы помериться силами с настоящим асом игрового бизнеса. Тот видит в Ричи родственную душу и вводит его в свою игру. Но когда степень опасности возрастает, а ставки достигают невероятных высот, Ричи вдруг отчётливо понимает, что его новый босс вот-вот совершит непоправимое, и пытается поменяться с ним ролями.
Продолжительность: 01:31:39
Качество видео: WEB-DLRip
Видеокодек: Xvid
Битрейт видео: ~1998 Kbit/s
Размер кадра: 720x304
Аудиокодек: MP3, 2.0
Битрейт аудио: 128 Kbit/s
Сэмпл: Скачать

MediaInfo

Общее
Полное имя : D:\Фильмы\Va.bank.2013.Dc.WEBDLRip.1400MB.avi
Формат : AVI
Формат/Информация : Audio Video Interleave
Размер файла : 1,37 Гбайт
Продолжительность : 1 ч. 31 м.
Общий поток : 2135 Кбит/сек
Программа кодирования : VirtualDubMod 1.5.10.2 (build 2540/release)
Библиотека кодирования : VirtualDubMod build 2540/release
Видео
Идентификатор : 0
Формат : MPEG-4 Visual
Профиль формата : Advanced [email protected]
Параметр BVOP формата : 2
Параметр QPel формата : Нет
Параметр GMC формата : Без точки перехода
Параметр матрицы формата : Выборочная
Идентификатор кодека : XVID
Идентификатор кодека/Подсказка : XviD
Продолжительность : 1 ч. 31 м.
Битрейт : 1998 Кбит/сек
Ширина : 720 пикселей
Высота : 304 пикселя
Соотношение сторон : 2,35:1
Частота кадров : 23,976 кадра/сек
Цветовое пространство : YUV
Субдискретизация насыщенности : 4:2:0
Битовая глубина : 8 бит
Тип развёртки : Прогрессивная
Метод сжатия : С потерями
Бит/(Пиксели*Кадры) : 0.381
Размер потока : 1,28 Гбайт (94%)
Библиотека кодирования : XviD 1.2.1 (UTC 2008-12-04)
Аудио
Идентификатор : 1
Формат : MPEG Audio
Версия формата : Version 1
Профиль формата : Layer 3
Режим : Joint stereo
Расширение режима : MS Stereo
Идентификатор кодека : 55
Идентификатор кодека/Подсказка : MP3
Продолжительность : 1 ч. 31 м.
Вид битрейта : Постоянный
Битрейт : 128 Кбит/сек
Каналы : 2 канала
Частота : 48,0 КГц
Метод сжатия : С потерями
Размер потока : 83,8 Мбайт (6%)
Выравнивание : Соединение по промежуткам
Продолжительность промежутка : 42 мс. (1,00 видеокадр)
Время предзагрузки промежутка : 504 мс.
Скриншоты:


Яндекс.Метрика
Рейтинг@Mail.ru