Открытая могила / Open Grave (Гонзало Лопес-Галлего / Gonzalo Lopez-Gallego) [2013 г., Ужасы, триллер, HDRip] [DVO]

 

Создавать темы 02-Июл-2014 07:59

Открытая могила / Open Grave- Год выпуска: 2013
Производство: США | Atlas Independent, 852 Films, Speranza13 Media
Жанр: Ужасы
Перевод: Двухголосый закадровый, любительский (DeadSno & den904)
Субтитры: Отсутствуют-Дата мировой премьеры: 14 августа 2013-Режиссер: Гонсало Лопес-Гальего-Продюсер: Аарон Л. Гинсбург, Уильям Грин, Майкл Б. Вундермэн-Актеры: Шарлто Копли, Джозеф Морган, Томас Кречман, Эрин Ричардс, Джози Хо, Макс Роттсли, Кати Домби, Ева Ботос, Марта Сабо, М. Фрайкс-Описание фильма:
История человека, который однажды обнаруживает себя в яме в окружении трупов. При этом он ничего не помнит, не знает, кто он, откуда и как сюда попал. С помощью товарищей по несчастью, тоже потерявших память, он должен вычислить убийцу, который, по всей вероятности, находится среди них.-
Продолжительность: 01:42:12
Качество видео: HDRip
Видеокодек: Xvid
Битрейт видео: ~ 1522 Кбит/сек
Размер кадра: 720 x 304 (2.368) at 24.000 fps
Аудиокодек: AC3, 5.1
Битрейт аудио: 384 Кбит/сек, 48,0 КГц

MediaInfo:

Полное имя                               : H:\BDRip'ы\Открытая могила  Open Grave  2013  ЛО  BDRip\Оtkritaya.mogila.2013.L2.HDRip.1400MB.avi
Формат                                   : AVI
Формат/Информация                        : Audio Video Interleave
Размер файла                             : 1,37 Гбайт
Продолжительность                        : 1 ч. 42 м.
Общий поток                              : 1915 Кбит/сек
Программа кодирования                    : VirtualDubMod 1.5.10.3 | (build 2550/release)
Библиотека кодирования                   : VirtualDubMod build 2550/release
[br]
Видео
Идентификатор                            : 0
Формат                                   : MPEG-4 Visual
Профиль формата                          : Advanced [email protected]
Параметр BVOP формата                    : 2
Параметр QPel формата                    : Нет
Параметр GMC формата                     : Без точки перехода
Параметр матрицы формата                 : Default (H.263)
Идентификатор кодека                     : XVID
Идентификатор кодека/Подсказка           : XviD
Продолжительность                        : 1 ч. 42 м.
Битрейт                                  : 1522 Кбит/сек
Ширина                                   : 720 пикселей
Высота                                   : 304 пикселя
Соотношение сторон                       : 2,35:1
Частота кадров                           : 24,000 кадра/сек
Цветовое пространство                    : YUV
Субдискретизация насыщенности            : 4:2:0
Битовая глубина                          : 8 бит
Тип развёртки                            : Прогрессивная
Метод сжатия                             : С потерями
Бит/(Пиксели*Кадры)                      : 0.290
Размер потока                            : 1,09 Гбайт (79%)
Библиотека кодирования                   : XviD 1.2.1 (UTC 2008-12-04)
[br]
Аудио
Идентификатор                            : 1
Формат                                   : AC-3
Формат/Информация                        : Audio Coding 3
Расширение режима                        : CM (complete main)
Параметр Endianness формата              : Big
Идентификатор кодека                     : 2000
Продолжительность                        : 1 ч. 42 м.
Вид битрейта                             : Постоянный
Битрейт                                  : 384 Кбит/сек
Каналы                                   : 6 каналов
Расположение каналов                     : Front: L C R, Side: L R, LFE
Частота                                  : 48,0 КГц
Битовая глубина                          : 16 бит
Метод сжатия                             : С потерями
Размер потока                            : 281 Мбайт (20%)
Выравнивание                             : Разделение по промежуткам
Продолжительность промежутка             : 42  мс. (1,00 видеокадр)
Время предзагрузки промежутка            : 500  мс.
Скриншоты:





Яндекс.Метрика
Рейтинг@Mail.ru