Убойный уикенд / Cottage Country (Питер Веллингтон)[2013.,Комедия, Криминал, Триллер] HDRip [Line]

 

Создавать темы 02-Июл-2014 07:52

Убойный уикенд / Cottage Country«They aren't going to let a little blood spoil their perfect wedding»- Год выпуска: 2013
Производство: Канада, Whizbang Films Inc.
Жанр: Комедия, Криминал, Триллер
Перевод: Дублированный (Чистый звук)
Субтитры: Отсутствуют
Дата мировой премьеры: 3 июля 2013
Дата российской премьеры: 10 октября 2013, «Наше Кино»
Дата выхода DVD релиза: 21 ноября 2013, «CD Land»
Режиссер: Питер Веллингтон
Продюсер: Фрэнк Сиракуза, Пол Гросс
Актеры: Тайлер Лабайн, Малин Акерман, Джим Аннан, Бенджамин Эйрс, Сабрина Грдевич, Кристианна Хауфлер, Дэн Петронижевич, Люси Панч, Рэнди Браун, Уэйн В. Джонсон
Описание фильма:
Тодд Чиповски собирается провести незабываемый уик-энд в загородном коттедже, который он арендовал специально для того, чтобы сделать предложение своей возлюбленной Кэмми Райан. Но торжественное событие и чудесный отдых подпортило появление братца Тодда Сэлинджера и его подружки Маши. Однако выходные все равно становятся для героев незабываемыми — особенно после того, как Тодд в порыве ярости случайно убивает своего брата топором.

Продолжительность: 01:31:23
Качество видео: HDRip
Видеокодек: Xvid
Битрейт видео: ~1757 Kbit/s
Размер кадра: 720 x 384
Аудио #1: AC3, 48,0 КHz, 2.0, 192 Kbit/s - Русский
Аудио #2: AC3, 48,0 КHz, 2.0, 192 Kbit/s - Aнглийский

MediaInfo

Общее
Полное имя : D:\Торренты\Убойный уикенд.2013.HDRip.avi
Формат : AVI
Формат/Информация : Audio Video Interleave
Размер файла : 1,38 Гбайт
Продолжительность : 1 ч. 31 м.
Общий поток : 2155 Кбит/сек
Программа кодирования : VirtualDubMod 1.5.10.3 (build 2550/release)
Библиотека кодирования : VirtualDubMod build 2550/release
Видео
Идентификатор : 0
Формат : MPEG-4 Visual
Профиль формата : Advanced [email protected]
Параметр BVOP формата : 2
Параметр QPel формата : Нет
Параметр GMC формата : Без точки перехода
Параметр матрицы формата : Default (H.263)
Режим смешивания : Сжатый битовый поток
Идентификатор кодека : XVID
Идентификатор кодека/Подсказка : XviD
Продолжительность : 1 ч. 31 м.
Битрейт : 1757 Кбит/сек
Ширина : 720 пикс.
Высота : 384 пикс.
Соотношение сторон : 1,875
Частота кадров : 24,000 кадр/сек
Цветовое пространство : YUV
Подвыборка цветности : 4:2:0
Битовая глубина : 8 бит
Тип развёртки : Прогрессивная
Метод сжатия : С потерями
Бит/(Пиксели*Кадры) : 0.265
Размер потока : 1,12 Гбайт (82%)
Библиотека кодирования : XviD 1.2.1 (UTC 2008-12-04)
Аудио #1
Идентификатор : 1
Формат : AC-3
Формат/Информация : Audio Coding 3
Расширение режима : CM (complete main)
Идентификатор кодека : 2000
Продолжительность : 1 ч. 31 м.
Вид битрейта : Постоянный
Битрейт : 192 Кбит/сек
Каналы : 2 канала
Расположение каналов : Front: L R
Частота : 48,0 КГц
Битовая глубина : 16 бит
Метод сжатия : С потерями
Размер потока : 125 Мбайт (9%)
Выравнивание : Разделение по промежуткам
Продолжительность промежутка : 42 мс. (1,00 видеокадр)
Время предзагрузки промежутка : 500 ms
Аудио #2
Идентификатор : 2
Формат : AC-3
Формат/Информация : Audio Coding 3
Расширение режима : CM (complete main)
Идентификатор кодека : 2000
Продолжительность : 1 ч. 31 м.
Вид битрейта : Постоянный
Битрейт : 192 Кбит/сек
Каналы : 2 канала
Расположение каналов : Front: L R
Частота : 48,0 КГц
Битовая глубина : 16 бит
Метод сжатия : С потерями
Размер потока : 125 Мбайт (9%)
Выравнивание : Разделение по промежуткам
Продолжительность промежутка : 42 мс. (1,00 видеокадр)
Время предзагрузки промежутка : 500 ms
Скриншоты:- 
Яндекс.Метрика
Рейтинг@Mail.ru