[ Сегодня на трекере фрилич! Идет свободное скачивание без начисления Download ]

Запретная дорога / Reservation Road (Терри Джордж / Terri Dzhordzh) [2007 г., Триллер, драма, криминал, HDTVRip] DVO

 

Создавать темы 02-Июл-2014 02:06

-Запретная дорога / Reservation Road-- Производство: США, Германия
Год выпуска: 2007 г.
Жанр: Триллер, драма, криминал
Продолжительность: 01:38:10
Мировая премьера: 13 сентября 2007
Дата выхода DVD: 22 мая 2008
Перевод: Профессиональный (двухголосый, закадровый)
Режиссер: Терри Джордж / Terri Dzhordzh-В ролях: Хоакин Феникс, Марк Руффало, Дженнифер Коннелли, Мира Сорвино, Элль Фэннинг, Шон Керли, Сэмюэл Райан Финн, Эдди Алдерсон, Сьюзэн Пауэлл, Корделл Клайд, Энтони Короне, Гари Кон, Джон Слэттери, Линда Дано, Джон Ротмен, Армин Амири, Джонатан Чайковский-Описание: Теплым сентябрьским вечером профессор колледжа Этан Лернер, его жена Грас и их дочь Эмма посещают сольный концерт. Их 10-летний сын Джош играет на виолончели — красиво, как обычно. Его младшая сестра смотрит на него, и родители гордятся своим сыном. На обратном пути домой они все останавливаются на бензоколонке у Заповедной дороги… Экранизация по произведению: Джон Бурнхам Шварц.-Качество видео: HDTVRip
Контейнер: AVI
Видео кодек: XviD
Аудио кодек: AC3
Видео: MPEG-4 Visual at 1658 Кбит/сек : 688 x 368 at 25.000 fps, 0.262 Бит/Пиксели*Кадры
Аудио: AC-3 at 448 Кбит/сек : 6 каналов, 48,0 КГц
Cубтитры: отсутствуют

Media Info

Общее
Полное имя : D:\уторент\раздачи\Zapretnaya doroga HDTVRip.avi
Формат : AVI
Формат/Информация : Audio Video Interleave
Размер файла : 1,45 Гбайт
Продолжительность : 1 ч. 38 м.
Общий поток : 2116 Кбит/сек
Программа кодирования : VirtualDubMod 1.5.10.2 (build 2540/release)
Библиотека кодирования : VirtualDubMod build 2540/release
Видео
Идентификатор : 0
Формат : MPEG-4 Visual
Профиль формата : Advanced [email protected]
Параметр BVOP формата : 1
Параметр QPel формата : Нет
Параметр GMC формата : Без точки перехода
Параметр матрицы формата : Выборочная
Идентификатор кодека : XVID
Идентификатор кодека/Подсказка : XviD
Продолжительность : 1 ч. 38 м.
Битрейт : 1658 Кбит/сек
Ширина : 688 пикселей
Высота : 368 пикселей
Соотношение сторон : 1,85:1
Частота кадров : 25,000 кадров/сек
Цветовое пространство : YUV
Субдискретизация насыщенности : 4:2:0
Битовая глубина : 8 бит
Тип развёртки : Прогрессивная
Метод сжатия : С потерями
Бит/(Пиксели*Кадры) : 0.262
Размер потока : 1,14 Гбайт (78%)
Библиотека кодирования : XviD 1.2.1 (UTC 2008-12-04)
Аудио
Идентификатор : 1
Формат : AC-3
Формат/Информация : Audio Coding 3
Расширение режима : CM (complete main)
Параметр Endianness формата : Big
Идентификатор кодека : 2000
Продолжительность : 1 ч. 38 м.
Вид битрейта : Постоянный
Битрейт : 448 Кбит/сек
Каналы : 6 каналов
Расположение каналов : Front: L C R, Side: L R, LFE
Частота : 48,0 КГц
Битовая глубина : 16 бит
Метод сжатия : С потерями
Размер потока : 315 Мбайт (21%)
Выравнивание : Разделение по промежуткам
Продолжительность промежутка : 40 мс. (1,00 видеокадр)
Время предзагрузки промежутка : 500 мс.

Скриншоты

Яндекс.Метрика
Рейтинг@Mail.ru