[ Сегодня на трекере фрилич! Идет свободное скачивание без начисления Download ]

Дом у озера / The Lake House (Алехандро Агрести / Alejandro Agresti) [2006 г., драма, фэнтези, ремейк, BDRip, 1080p] Dub + DVO + Original (Eng) + Sub (Rus, Eng)

 

Создавать темы 02-Июл-2014 02:04

-Дом у озера / The Lake House
«Можно ли полюбить с первого слова?»
- Год выпуска: 2006 г.
Производство: США , Австралия , Warner Bros. Pictures, Village Roadshow Pictures, Vertigo Entertainment Production
Жанр: драма, фэнтези, ремейк
Продолжительность: 01:38:34
Мировая премьера: 16 июня 2006
Российская премьера: 10 августа 2006, «Каро-Премьер»
Дата выхода DVD: 10 февраля 2009, «Юниверсал Пикчерс Рус»
Перевод 1: Профессиональный (полное дублирование)
Перевод 2: Профессиональный (двухголосый, закадровый) [Супербит]
Оригинальный аудиопоток: английский
Режиссёр: Алехандро Агрести / Alejandro Agresti-В ролях: Киану Ривз, Сандра Буллок, Дилан Уолш, Шохре Агдашлу, Эбон Мосс-Бахрах, Лин Коллинс, Виллек ван Амелрой, Кристофер Плюмер-Описание: Зима 2006 года. Ощутив необходимость изменить свою жизнь, доктор Кейт Форестер покидает свой дом у озера в пригороде Иллинойса и устраивается на работу в чикагскую больницу. Единственное, о чём она жалеет, так это о своём красивом доме с огромными окнами, который дарил ей душевное спокойствие. По дороге в город Кейт оставляет в почтовом ящике письмо, которое должен получить новый обитатель дома...Так начинается история двух влюблённых, которые никогда не встречались...
-Качество видео: BDRip
Контейнер: MKV
Стандарт разрешения: 1080p
Видео кодек: AVC
Аудио кодек: AC3
Видео: 1920x796 (2.40:1), 9500 kbps, 23.976 fps, 0.259 bit/pixel
Аудио #1: Russian: 448 kbps, 6 ch, 48.0 kHz {Dub}
Аудио #2: Russian: 448 kbps, 6 ch, 48.0 kHz {DVO}
Аудио #3: English: 640 kbps, 6 ch, 48.0 kHz
Cубтитры: русские, английские

Media Info

Общее
Уникальный идентификатор                 : 238833542323882944708733105304029271700 (0xB3ADAAC650EEF47BBEED3FCE962E9694)
Полное имя                               : Дом у озера_ The Lake House.2006.[BDRip.1080p].mkv
Формат                                   : Matroska
Версия формата                           : Version 2
Размер файла                             : 7,60 Гбайт
Продолжительность                        : 1 ч. 38 м.
Общий поток                              : 11,0 Мбит/сек
Дата кодирования                         : UTC 2011-03-27 18:16:06
Программа кодирования                    : mkvmerge v3.4.0 ('Rapunzel') сборка от May 15 2010 09:38:20
Библиотека кодирования                   : libebml v0.8.0 + libmatroska v0.9.0
Видео
Идентификатор                            : 1
Формат                                   : AVC
Формат/Информация                        : Advanced Video Codec
Профиль формата                          : [email protected]
Параметр CABAC формата                   : Да
Параметр ReFrames формата                : 5 кадров
Идентификатор кодека                     : V_MPEG4/ISO/AVC
Продолжительность                        : 1 ч. 38 м.
Битрейт                                  : 9500 Кбит/сек
Ширина                                   : 1920 пикселей
Высота                                   : 796 пикселей
Соотношение сторон                       : 2,40:1
Режим частоты кадров                     : Постоянный
Частота кадров                           : 23,976 кадра/сек
Цветовое пространство                    : YUV
Субдискретизация насыщенности            : 4:2:0
Битовая глубина                          : 8 бит
Тип развёртки                            : Прогрессивная
Бит/(Пиксели*Кадры)                      : 0.259
Размер потока                            : 6,39 Гбайт (84%)
Библиотека кодирования                   : x264 core 114 r1913+448 e7f23ef
Настройки программы                      : cabac=1 / ref=5 / deblock=1:-3:-3 / analyse=0x3:0x133 / me=umh / subme=10 / psy=1 / fade_compensate=0.00 / psy_rd=1.00:0.05 / mixed_ref=1 / me_range=32 / chroma_me=1 / trellis=2 / 8x8dct=1 / cqm=0 / deadzone=21,11 / fast_pskip=0 / chroma_qp_offset=-3 / threads=3 / sliced_threads=0 / nr=0 / decimate=1 / interlaced=0 / constrained_intra=0 / fgo=0 / bframes=9 / b_pyramid=2 / b_adapt=2 / b_bias=0 / direct=3 / weightb=1 / open_gop=0 / weightp=2 / keyint=250 / keyint_min=23 / scenecut=40 / intra_refresh=0 / rc=2pass / mbtree=0 / bitrate=9500 / ratetol=1.0 / qcomp=0.60 / qpmin=10 / qpmax=51 / qpstep=4 / cplxblur=20.0 / qblur=0.5 / ip_ratio=1.40 / pb_ratio=1.30 / aq=1:1.00
Язык                                     : English
Default                                  : Да
Forced                                   : Нет
Аудио #1
Идентификатор                            : 2
Формат                                   : AC-3
Формат/Информация                        : Audio Coding 3
Расширение режима                        : CM (complete main)
Параметр Endianness формата              : Big
Идентификатор кодека                     : A_AC3
Продолжительность                        : 1 ч. 38 м.
Вид битрейта                             : Постоянный
Битрейт                                  : 448 Кбит/сек
Каналы                                   : 6 каналов
Расположение каналов                     : Front: L C R, Side: L R, LFE
Частота                                  : 48,0 КГц
Битовая глубина                          : 16 бит
Метод сжатия                             : С потерями
Размер потока                            : 316 Мбайт (4%)
Заголовок                                : Дубляж, AC3 5.1, 448 kbps
Язык                                     : Russian
Default                                  : Да
Forced                                   : Нет
Аудио #2
Идентификатор                            : 3
Формат                                   : AC-3
Формат/Информация                        : Audio Coding 3
Расширение режима                        : CM (complete main)
Параметр Endianness формата              : Big
Идентификатор кодека                     : A_AC3
Продолжительность                        : 1 ч. 38 м.
Вид битрейта                             : Постоянный
Битрейт                                  : 448 Кбит/сек
Каналы                                   : 6 каналов
Расположение каналов                     : Front: L C R, Side: L R, LFE
Частота                                  : 48,0 КГц
Битовая глубина                          : 16 бит
Метод сжатия                             : С потерями
Размер потока                            : 316 Мбайт (4%)
Заголовок                                : Двухголосый (Супербит), AC3 5.1, 448 kbps
Язык                                     : Russian
Default                                  : Нет
Forced                                   : Нет
Аудио #3
Идентификатор                            : 4
Формат                                   : AC-3
Формат/Информация                        : Audio Coding 3
Расширение режима                        : CM (complete main)
Параметр Endianness формата              : Big
Идентификатор кодека                     : A_AC3
Продолжительность                        : 1 ч. 38 м.
Вид битрейта                             : Постоянный
Битрейт                                  : 640 Кбит/сек
Каналы                                   : 6 каналов
Расположение каналов                     : Front: L C R, Side: L R, LFE
Частота                                  : 48,0 КГц
Битовая глубина                          : 16 бит
Метод сжатия                             : С потерями
Размер потока                            : 451 Мбайт (6%)
Заголовок                                : AC3 5.1, 640 kbps
Язык                                     : English
Default                                  : Нет
Forced                                   : Нет
Текст #1
Идентификатор                            : 5
Формат                                   : UTF-8
Идентификатор кодека                     : S_TEXT/UTF8
Идентификатор кодека/Информация          : UTF-8 Plain Text
Язык                                     : Russian
Default                                  : Нет
Forced                                   : Нет
Текст #2
Идентификатор                            : 6
Формат                                   : UTF-8
Идентификатор кодека                     : S_TEXT/UTF8
Идентификатор кодека/Информация          : UTF-8 Plain Text
Язык                                     : English
Default                                  : Нет
Forced                                   : Нет
Меню
00:00:00.000                             : en:Credits
00:03:35.132                             : en:Workday Worlds
00:07:38.041                             : en:Misunderstandings
00:13:18.005                             : en:Family Reunion
00:17:17.036                             : en:Can This Be Happening?
00:23:39.168                             : en:Walking Together
00:26:58.200                             : en:Ways To Be Close
00:32:44.462                             : en:Incomplete
00:36:40.240                             : en:Glimpse Of Kate
00:40:25.268                             : en:Metting Morgan
00:45:45.660                             : en:Birthday Party
00:50:27.608                             : en:Their Dance
00:59:24.519                             : en:Architect Of The Year
01:03:21.172                             : en:Captivated By The Light
01:09:23.659                             : en:Broken Date
01:13:14.765                             : en:Let Me Let You Go
01:15:48.210                             : en:What Kate Wants
01:20:21.316                             : en:So In Unison
01:24:50.502                             : en:New Firm
01:28:10.869                             : en:Wait
01:35:03.281                             : en:End Credits

Интересно


* Первоначально на роль главного героя планировался Джон Кьюсак.
* Рабочим названием фильма долгое время оставалось «Il Mare». В фильме - это итальянское слово, означающее «море»; используется для названия ресторана, где Алекс назначает встречу Кэйт через два года. Кроме того - это название корейского фильма-оригинала.
* Героиня Буллок дважды смотрит один и тот же фильм - «Дурная слава» Альфреда Хичкока с Ингрид Бергман и Кэри Грантом.
* В момент случайной встречи героев в 2004 году, Алекс и Кэйт танцуют под песню Пола Маккартни - This Never Happened Before, что по сути является анахронизмом: песня была записана Маккартни только в 2005 году.
-Фильм вошёл в историю как первая картина, вышедшая одновременно в трёх цифровых форматах: DVD, HD-DVD и BluRay.
-
Яндекс.Метрика
Рейтинг@Mail.ru