(PopMusic) Al Bano & Romina Power - Fragile - 1988, FLAC (image+.cue), lossless

 

Создавать темы 01-Июл-2014 21:52

--Al Bano & Romina Power - Fragile-- Жанр: PopMusic
Год выпуска диска: 1988
Производитель диска: Made in Germany WEA Musik GMBH 243 867-2
Аудио кодек: FLAC
Тип рипа: image+.cue
Битрейт аудио: lossless
Продолжительность: 00:45:19

Трэклист:
CD: Al Bano & Romina Power - Fragile
YEAR: 1988
01. Fragile [0:04:17.70]
02. Sei Tu [0:03:48.46]
03. Africa Africa [0:03:38.06]
04. Che Amici [0:03:23.73]
05. Donna [0:03:25.42]
06. A Miracle [0:03:26.57]
07. Questa Notte [0:03:23.02]
08. Non Persarci Piu [0:04:10.04]
09. Il Bambino Non `e piu re [0:03:25.00]
10. Non Voglio Perderti [0:04:35.96]
11. Era Casa Mia [0:04:06.90]
12. Nessun Dorma [0:03:38.96]
Total: 45:19.86

back&disc


Отчёт EAC

Exact Audio Copy V0.99 prebeta 5 from 4. May 2009
EAC extraction logfile from 20. July 2010, 3:00
Al Bano & Romina Power / Fragile
Used drive : PLEXTOR DVDR PX-716A Adapter: 0 ID: 0
Read mode : Secure
Utilize accurate stream : Yes
Defeat audio cache : Yes
Make use of C2 pointers : No
Read offset correction : 30
Overread into Lead-In and Lead-Out : Yes
Fill up missing offset samples with silence : Yes
Delete leading and trailing silent blocks : No
Null samples used in CRC calculations : Yes
Used interface : Native Win32 interface for Win NT & 2000
Used output format : User Defined Encoder
Selected bitrate : 1024 kBit/s
Quality : High
Add ID3 tag : No
Command line compressor : C:\Program Files (x86)\FLAC\flac.exe
Additional command line options : -8 -V -T "ARTIST=%a" -T "TITLE=%t" -T "ALBUM=%g" -T "DATE=%y" -T "TRACKNUMBER=%n" -T "GENRE=%m" -T "COMMENT=EAC FLAC -8" %s
TOC of the extracted CD
Track | Start | Length | Start sector | End sector
---------------------------------------------------------
1 | 0:00.00 | 4:17.53 | 0 | 19327
2 | 4:17.53 | 3:48.35 | 19328 | 36462
3 | 8:06.13 | 3:38.05 | 36463 | 52817
4 | 11:44.18 | 3:23.55 | 52818 | 68097
5 | 15:07.73 | 3:25.32 | 68098 | 83504
6 | 18:33.30 | 3:26.43 | 83505 | 98997
7 | 21:59.73 | 3:23.02 | 98998 | 114224
8 | 25:23.00 | 4:10.03 | 114225 | 132977
9 | 29:33.03 | 3:25.00 | 132978 | 148352
10 | 32:58.03 | 4:35.72 | 148353 | 169049
11 | 37:34.00 | 4:06.68 | 169050 | 187567
12 | 41:40.68 | 3:38.72 | 187568 | 203989
Range status and errors
Selected range
Filename E:\mtorrent_flac\Al Bano & Romina Power - Fragile\Al Bano & Romina Power - Fragile.wav
Peak level 95.7 %
Range quality 100.0 %
Test CRC 99A00201
Copy CRC 99A00201
Copy OK
No errors occurred
AccurateRip summary
Track 1 not present in database
Track 2 not present in database
Track 3 not present in database
Track 4 not present in database
Track 5 not present in database
Track 6 not present in database
Track 7 not present in database
Track 8 not present in database
Track 9 not present in database
Track 10 not present in database
Track 11 not present in database
Track 12 not present in database
None of the tracks are present in the AccurateRip database
End of status report
Яндекс.Метрика
Рейтинг@Mail.ru