[ Сегодня на трекере фрилич! Идет свободное скачивание без начисления Download ]

(Шансон) VA - Ээхх, разгуляй! - часть 2 - 2009, FLAC (image+.cue), lossless

 

Создавать темы 01-Июл-2014 21:48

--Various Artists - Ээхх, разгуляй! часть 2-- Жанр: Шансон
Страна-производитель диска: Россия
Год издания: 2009
Издатель (лейбл): КВАДРО-ДИСК
Аудиокодек: FLAC (*.flac)
Тип рипа: image+.cue
Битрейт аудио: lossless
Продолжительность:01:11:17
Наличие сканов в содержимом раздачи: да


01. Vengerov & Fedoroff -- Простоквашино (3:37)
02. Андрей Бандера -- Ночка (3:20)
03. Ирина Круг -- Где-то за морем (3:33)
04. группа Бутырка -- Не мучь меня (3:01)
05. Стас Михайлов -- Я верю (3:39)
06. Елена Ваенга -- Курю (4:08)
07. Виктор Красавин -- Обманщица (3:11)
08. Виктория Цыганова -- Кому это надо!? (3:05)
09. Сергей Куприк -- Так-так (3:06)
10. Геннадий Жаров -- Ушаночка-2 (3:06)
11. Михаил Шуфутинский -- Сингарелла (4:40)
12. Mr. Credo -- Клен RMX (3:45)
13. группа Штар -- Смуглянка (3:41)
14. Ринат Сафин -- Татарин (3:27)
15. Вилли Токарев -- Рыбацкая (3:01)
16. группа Дюна -- Страна Лимония (3:18)
17. Надежда Кадышева и анс.'Золотое кольцо' -- Я не колдунья (3:21)
18. Любовь Шепилова -- Загуляю я сегодня! (3:36)
19. Гарик Кричевский -- Львовский дождь (3:10)
20. Михаил Боярский -- Зеленоглазое такси (5:32)

Отчёт EAC

Exact Audio Copy V1.0 beta 1 from 15. November 2010
Отчёт EAC об извлечении, выполненном 19. октября 2011, 22:23
Various / VA Ээхх, разгуляй! - часть 2
Дисковод: Optiarc DVD RW AD-7260S Adapter: 1 ID: 0
Режим чтения : Достоверность
Использование точного потока : Да
Отключение кэша аудио : Да
Использование указателей C2 : Нет
Коррекция смещения при чтении : 48
Способность читать области Lead-in и Lead-out : Нет
Заполнение пропущенных сэмплов тишиной : Да
Удаление блоков с тишиной в начале и конце : Нет
При вычислениях CRC использовались нулевые сэмплы : Да
Интерфейс : Встроенный Win32-интерфейс для Win NT/2000
Выходной формат : Внутренние WAV-операции
Формат сэмплов : 44.100 Гц; 16 бит; стерео
TOC извлечённого CD
Трек | Старт | Длительность | Начальный сектор | Конечный сектор
---------------------------------------------------------------------
1 | 0:00.00 | 3:37.18 | 0 | 16292
2 | 3:37.18 | 3:19.74 | 16293 | 31291
3 | 6:57.17 | 3:33.03 | 31292 | 47269
4 | 10:30.20 | 3:00.53 | 47270 | 60822
5 | 13:30.73 | 3:39.25 | 60823 | 77272
6 | 17:10.23 | 4:08.11 | 77273 | 95883
7 | 21:18.34 | 3:10.61 | 95884 | 110194
8 | 24:29.20 | 3:04.38 | 110195 | 124032
9 | 27:33.58 | 3:05.72 | 124033 | 137979
10 | 30:39.55 | 3:06.35 | 137980 | 151964
11 | 33:46.15 | 4:39.68 | 151965 | 172957
12 | 38:26.08 | 3:45.03 | 172958 | 189835
13 | 42:11.11 | 3:40.59 | 189836 | 206394
14 | 45:51.70 | 3:26.42 | 206395 | 221886
15 | 49:18.37 | 3:01.29 | 221887 | 235490
16 | 52:19.66 | 3:18.17 | 235491 | 250357
17 | 55:38.08 | 3:21.07 | 250358 | 265439
18 | 58:59.15 | 3:35.58 | 265440 | 281622
19 | 62:34.73 | 3:09.55 | 281623 | 295852
20 | 65:44.53 | 5:32.33 | 295853 | 320785
Характеристики диапазона извлечения и сообщения об ошибках
Выбранный диапазон
Имя файла C:\Users\Анатолий\Desktop\Музыка\VA Ээхх, разгуляй! - часть 2\Various - VA Ээхх, разгуляй! - часть 2.wav
Пиковый уровень 97.7 %
0.2 X
Качество диапазона 100.0 %
CRC теста 16C20B3B
CRC копии 16C20B3B
Копирование... OK
Ошибок не произошло
AccurateRip: сводка
Трек 1 нет в базе данных
Трек 2 нет в базе данных
Трек 3 нет в базе данных
Трек 4 нет в базе данных
Трек 5 нет в базе данных
Трек 6 нет в базе данных
Трек 7 нет в базе данных
Трек 8 нет в базе данных
Трек 9 нет в базе данных
Трек 10 нет в базе данных
Трек 11 нет в базе данных
Трек 12 нет в базе данных
Трек 13 нет в базе данных
Трек 14 нет в базе данных
Трек 15 нет в базе данных
Трек 16 нет в базе данных
Трек 17 нет в базе данных
Трек 18 нет в базе данных
Трек 19 нет в базе данных
Трек 20 нет в базе данных
Ни одного трека нет в базе AccurateRip
Конец отчёта
==== E4C841621322DFDC2F57130C5E19093BBB3156417A337FDE35598C1E5745F46B ====
Яндекс.Метрика
Рейтинг@Mail.ru