Совместная поездка / Ride Along (Тим Стори)(2014,Боевик, комедия) BDRip [1080p]

 

Создавать темы 01-Июл-2014 21:44

-Совместная поездка / Ride Along (2014) BDRip- Год выпуска: 2014
Производство: США
Жанр: Боевик, комедия
Режиссер: Тим Стори
Продюсер: Мэтт Альварес, Ларри Брэзнер, Айс Кьюб
Актеры: Кевин Харт, Айс Кьюб, Джон Легуизэмо, Брюс Макгилл, Тика Самптер, Брайан Коллен, Лоренс Фишбёрн, Драгош Букур, Эрик Бенсон, Джей Фэро
Описание фильма:
Вот уже два года охранник средней школы Бен только то и делает, что пытается доказать опытному детективу Джеймсу, что достоин его сестры Анджелы, своей будущей невесты. На этот раз, как следует из фильма «Совместная поездка» (Ride Along), он предпринимает очередной шаг, что влечет за собой самые сумасшедшие 24 часа в его жизни. Когда Бен, наконец, принят в полицейскую академию, он думает, что наконец-то заслужил руку и сердце Анджелы, и просит согласия будущего шурина на свадьбу...
Перевод: Дублированный (iTunes Russia)
Язык субтитров: Румынский, английский
Вид субтитров: Вшитые (отключаемые)

Дата мировой премьеры: 17 января 2014
Дата украинской премьеры: 10 апреля 2014
Продолжительность: 01:39:38
Качество видео: BDRip (1080p)
Видеокодек: MPEG-4 AVC
Битрейт видео: ~17.4 Мбит/с
Размер кадра: 1920x800
Аудио:
1. AC3, 6 ch, 384 Кбит/с - русский
2. DTS, 6 ch, 1510 кбит/c - английский
3. AC3, 2 ch, 192 Кбит/с - английский (комментарии)
4. AC3, 2 ch, 192 Кбит/с - английский (комментарии)

MediaInfo:

Общее
Уникальный идентификатор : 198281315338494635235188963425944903029 (0x952B979E805C08C9801C8C83B4A89D75)
Полное имя : C:\DOM.RU\Sovmestnaya poezdka 2014 1080p.mkv
Формат : Matroska
Версия формата : Version 4 / Version 2
Размер файла : 14,0 Гбайт
Продолжительность : 1 ч. 39 м.
Общий поток : 20,1 Мбит/сек
Дата кодирования : UTC 2014-06-30 19:41:03
Программа кодирования : mkvmerge v6.5.0 ('Isn't she lovely') built on Oct 20 2013 12:50:05
Библиотека кодирования : libebml v1.3.0 + libmatroska v1.4.1
Видео
Идентификатор : 1
Формат : AVC
Формат/Информация : Advanced Video Codec
Профиль формата : [url=mailto:[email protected]][email protected][/url]
Параметр CABAC формата : Да
Параметр ReFrames формата : 5 кадров
Идентификатор кодека : V_MPEG4/ISO/AVC
Продолжительность : 1 ч. 39 м.
Битрейт : 17,4 Мбит/сек
Ширина : 1920 пикселей
Высота : 800 пикселей
Соотношение сторон : 2,40:1
Частота кадров : 23,976 кадра/сек
Цветовое пространство : YUV
Субдискретизация насыщенности : 4:2:0
Битовая глубина : 8 бит
Тип развёртки : Прогрессивная
Бит/(Пиксели*Кадры) : 0.473
Размер потока : 12,1 Гбайт (87%)
Заголовок : 1080p-LolHD
Библиотека кодирования : x264 core 142 r2409kMod d6b4e63
Настройки программы : cabac=1 / ref=5 / deblock=1:-3:-3 / analyse=0x3:0x133 / me=umh / subme=10 / psy=1 / fade_compensate=0.00 / psy_rd=1.05:0.00 / mixed_ref=1 / me_range=48 / chroma_me=1 / trellis=2 / 8x8dct=1 / cqm=0 / deadzone=21,11 / fast_pskip=0 / chroma_qp_offset=-2 / threads=24 / lookahead_threads=6 / sliced_threads=0 / nr=0 / decimate=0 / interlaced=0 / bluray_compat=0 / constrained_intra=0 / fgo=0 / bframes=10 / b_pyramid=2 / b_adapt=2 / b_bias=0 / direct=3 / weightb=1 / open_gop=0 / weightp=2 / keyint=250 / keyint_min=23 / scenecut=40 / intra_refresh=0 / rc=crf / mbtree=0 / crf=16.1000 / qcomp=0.65 / qpmin=0 / qpmax=69 / qpstep=4 / ip_ratio=1.20 / pb_ratio=1.15 / aq=1:0.68 / zones=0,7573,crf=15/22276,22423,crf=15/32003,32157,crf=15/32602,36045,crf=15/38972,39117,crf=15/64339,68570,crf=15/74450,79052,crf=15/80830,80881,crf=15/81665,81703,crf=15/83319,86501,crf=15/89303,117002,crf=15/125757,125887,crf=15/130028,135163,crf=15
Язык : English
Default : Да
Forced : Нет
Аудио #1
Идентификатор : 2
Формат : AC-3
Формат/Информация : Audio Coding 3
Расширение режима : CM (complete main)
Идентификатор кодека : A_AC3
Продолжительность : 1 ч. 39 м.
Вид битрейта : Постоянный
Битрейт : 384 Кбит/сек
Каналы : 6 каналов
Расположение каналов : Front: L C R, Side: L R, LFE
Частота : 48,0 КГц
Битовая глубина : 16 бит
Метод сжатия : С потерями
Размер потока : 274 Мбайт (2%)
Язык : Russian
Default : Да
Forced : Нет
Аудио #2
Идентификатор : 3
Формат : DTS
Формат/Информация : Digital Theater Systems
Идентификатор кодека : A_DTS
Продолжительность : 1 ч. 39 м.
Вид битрейта : Постоянный
Битрейт : 1510 Кбит/сек
Каналы : 6 каналов
Расположение каналов : Front: L C R, Side: L R, LFE
Частота : 48,0 КГц
Битовая глубина : 24 бит
Метод сжатия : С потерями
Размер потока : 1,05 Гбайт (8%)
Язык : English
Default : Нет
Forced : Нет
Аудио #3
Идентификатор : 4
Формат : AC-3
Формат/Информация : Audio Coding 3
Профиль формата : Dolby Digital
Расширение режима : CM (complete main)
Идентификатор кодека : A_AC3
Продолжительность : 1 ч. 39 м.
Вид битрейта : Постоянный
Битрейт : 192 Кбит/сек
Каналы : 2 канала
Расположение каналов : Front: L R
Частота : 48,0 КГц
Битовая глубина : 16 бит
Метод сжатия : С потерями
Размер потока : 137 Мбайт (1%)
Заголовок : Commentary
Язык : English
Default : Нет
Forced : Нет
Аудио #4
Идентификатор : 5
Формат : AC-3
Формат/Информация : Audio Coding 3
Профиль формата : Dolby Digital
Расширение режима : CM (complete main)
Идентификатор кодека : A_AC3
Продолжительность : 1 ч. 39 м.
Вид битрейта : Постоянный
Битрейт : 192 Кбит/сек
Каналы : 2 канала
Расположение каналов : Front: L R
Частота : 48,0 КГц
Битовая глубина : 16 бит
Метод сжатия : С потерями
Размер потока : 137 Мбайт (1%)
Заголовок : Commentary
Язык : English
Default : Нет
Forced : Нет
Текст #1
Идентификатор : 6
Формат : UTF-8
Идентификатор кодека : S_TEXT/UTF8
Идентификатор кодека/Информация : UTF-8 Plain Text
Заголовок : Romanian
Язык : Romanian
Default : Нет
Forced : Нет
Текст #2
Идентификатор : 7
Формат : UTF-8
Идентификатор кодека : S_TEXT/UTF8
Идентификатор кодека/Информация : UTF-8 Plain Text
Заголовок : ENG-SRT
Язык : English
Default : Нет
Forced : Нет
Текст #3
Идентификатор : 8
Формат : UTF-8
Идентификатор кодека : S_TEXT/UTF8
Идентификатор кодека/Информация : UTF-8 Plain Text
Заголовок : ENG-SRT
Язык : English
Default : Нет
Forced : Нет
Меню
00:00:00.000 : en:Chapter 01
00:05:09.184 : en:Chapter 02
00:10:37.387 : en:Chapter 03
00:14:40.922 : en:Chapter 04
00:19:46.435 : en:Chapter 05
00:25:03.419 : en:Chapter 06
00:31:16.750 : en:Chapter 07
00:35:46.394 : en:Chapter 08
00:40:51.658 : en:Chapter 09
00:44:31.085 : en:Chapter 10
00:50:40.162 : en:Chapter 11
00:54:49.995 : en:Chapter 12
01:00:00.931 : en:Chapter 13
01:06:13.136 : en:Chapter 14
01:11:47.303 : en:Chapter 15
01:18:44.553 : en:Chapter 16
01:22:53.594 : en:Chapter 17
01:26:27.974 : en:Chapter 18
01:30:09.279 : en:Chapter 19
01:35:27.347 : en:Chapter 20
Скриншоты:
Яндекс.Метрика
Рейтинг@Mail.ru