[ Сегодня на трекере фрилич! Идет свободное скачивание без начисления Download ]

Звездные войны / Star Wars (Джордж Лукас)(1977-2005,Фантастика, Фэнтези, Боевик) BDRip [720p] [hand made 60fps] [Антология]

 

Создавать темы 01-Июл-2014 21:36

-Звездные войны / Star Wars (1977-2005) BDRip [720p] [hand made 60fps] [Антология]- Жанр: Фантастика, Фэнтези, Боевик
Года производства: 1977, 1980, 1983, 1999, 2002, 2005
Произведено: США
Продолжительность: 02:16:11; 02:22:28; 02:20:06; 02:04:45; 02:07:21; 02:14:47
Режиссер: Джордж ЛукасОписание
Звёздные войны (англ. Star Wars) — фантастическая сага, задуманная американским режиссёром Джорджем Лукасом в начале 1970-х годов, и позднее расширенная. Первый фильм назывался «Звездные войны», но после выхода следующего эпизода, у первого фильма появился подзаголовок «Новая надежда». Первый фильм вышел 25 мая 1977, и имел огромное влияние на международную культуру, однако произведение по вселенной — одноимённая книга-новеллизация — появилось ещё в 1976 году, так как продюсеры опасались провала фильма в прокате. Спустя двадцать два года после выхода первого фильма на экраны был выпущен Star Wars: Episode I и Лукас начал режиссировать вторую трилогию. По его признанию, идея фильма возникла под влиянием исследований Джозефа Кэмпбелла по сравнительной мифологии («Герой с тысячью лицами» и др.)

Внимание!

Перед скачиванием обязательно проверьте Сэмплы на своем оборудовании.
В 2,5 раза больше кадров!
В 2,5 раза плавнее! (59,94 fps)
Приятного просмотра.

Звездные войны: Эпизод 1 – Скрытая угроза / Star Wars: Episode I - The Phantom Menace

Звездные войны: Эпизод 1 – Скрытая угроза / Star Wars: Episode I - The Phantom MenaceОригинальное название: Star Wars: Episode I - The Phantom Menace
Год выпуска: 1999
Жанр: Фантастика, Фэнтези, Боевик
Производство: США
Описание фильма:
Мирная и процветающая планета Набу. Торговая федерация, не желая платить налоги, вступает в прямой конфликт с королевой Амидалой, правящей на планете, что приводит к войне. На стороне королевы и республики в ней участвуют два рыцаря-джедая: учитель и ученик, Квай-Гон-Джин и Оби-Ван Кеноби…
Режиссер: Джордж Лукас
Актеры: Лиам Нисон, Юэн МакГрегор, Натали Портман, Джейк Ллойд, Иен МакДермид, Рэй Парк, Теренс Стэмп, Сэмюэл Л. Джексон, Пернилла Аугуст, Хью Куарши
Продолжительность: 02:16:11
Качество видео: BDRip
Перевод: Дублированный
Язык субтитров: Rus (форс.), Rus (полные), Eng (полные)
Вид субтитров: Вшитые

Видеокодек: MPEG-4 AVC/H.264
Битрейт видео: ~4852 kb/s
Размер кадра: 1280*544
Аудио 1 Русский: AC3 5.1, 640 kb/s
Аудио 1 Английский: AC3 5.1, 640 kb/s
Сэмпл: Ссылка

MI

Общее
Уникальный идентификатор : 170799206541232833993658267188532132632 (0x807EBB0AEE2C1121B7D8B1A09544BB18)
Полное имя : F:\Звездные войны 720p 60fps\Звездные войны 1 720p 60fps.mkv
Формат : Matroska
Версия формата : Version 4 / Version 2
Размер файла : 5,95 Гбайт
Продолжительность : 2 ч. 16 м.
Общий поток : 6256 Кбит/сек
Дата кодирования : UTC 2014-06-29 02:57:09
Программа кодирования : mkvmerge v7.0.0 ('Where We Going') 64bit built on Jun 9 2014 15:16:27
Библиотека кодирования : libebml v1.3.0 + libmatroska v1.4.1
DURATION : 02:16:10.944000000
NUMBER_OF_FRAMES : 255342
NUMBER_OF_BYTES : 653675520
_STATISTICS_WRITING_APP : mkvmerge v7.0.0 ('Where We Going') 64bit built on Jun 9 2014 15:16:27
_STATISTICS_WRITING_DATE_UTC : 2014-06-29 02:57:09
_STATISTICS_TAGS : BPS DURATION NUMBER_OF_FRAMES NUMBER_OF_BYTES
Видео
Идентификатор : 1
Формат : AVC
Формат/Информация : Advanced Video Codec
Профиль формата : [url=mailto:[email protected]][email protected][/url]
Параметр CABAC формата : Да
Параметр ReFrames формата : 9 кадров
Идентификатор кодека : V_MPEG4/ISO/AVC
Продолжительность : 2 ч. 16 м.
Битрейт : 4852 Кбит/сек
Ширина : 1280 пикселей
Высота : 544 пикселя
Соотношение сторон : 2,35:1
Режим частоты кадров : Постоянный
Частота кадров : 59,880 кадров/сек
Частота кадров в оригинале : 59,940 кадров/сек
Цветовое пространство : YUV
Субдискретизация насыщенности : 4:2:0
Битовая глубина : 8 бит
Тип развёртки : Прогрессивная
Бит/(Пиксели*Кадры) : 0.116
Размер потока : 4,62 Гбайт (78%)
Библиотека кодирования : x264 core 130 r2273 b3065e6
Настройки программы : cabac=1 / ref=9 / deblock=1:-2:-2 / analyse=0x3:0 / me=umh / subme=9 / psy=1 / psy_rd=1.00:0.10 / mixed_ref=1 / me_range=24 / chroma_me=0 / trellis=1 / 8x8dct=1 / cqm=0 / deadzone=21,11 / fast_pskip=0 / chroma_qp_offset=-3 / threads=12 / lookahead_threads=1 / sliced_threads=0 / nr=0 / decimate=0 / interlaced=0 / bluray_compat=0 / constrained_intra=0 / bframes=6 / b_pyramid=2 / b_adapt=2 / b_bias=0 / direct=1 / weightb=1 / open_gop=0 / weightp=2 / keyint=599 / keyint_min=59 / scenecut=40 / intra_refresh=0 / rc=crf / mbtree=0 / crf=16.0 / qcomp=0.60 / qpmin=0 / qpmax=69 / qpstep=4 / ip_ratio=1.40 / pb_ratio=1.30 / aq=1:0.90
Язык : English
Default : Да
Forced : Нет
DURATION : 02:16:10.855000000
NUMBER_OF_FRAMES : 489761
NUMBER_OF_BYTES : 5078173424
_STATISTICS_WRITING_APP : mkvmerge v7.0.0 ('Where We Going') 64bit built on Jun 9 2014 15:16:27
_STATISTICS_WRITING_DATE_UTC : 2014-06-29 02:57:09
_STATISTICS_TAGS : BPS DURATION NUMBER_OF_FRAMES NUMBER_OF_BYTES
Аудио #1
Идентификатор : 5
Формат : AC-3
Формат/Информация : Audio Coding 3
Расширение режима : CM (complete main)
Параметр Endianness формата : Big
Идентификатор кодека : A_AC3
Продолжительность : 2 ч. 16 м.
Вид битрейта : Постоянный
Битрейт : 640 Кбит/сек
Каналы : 6 каналов
Расположение каналов : Front: L C R, Side: L R, LFE
Частота : 48,0 КГц
Битовая глубина : 16 бит
Метод сжатия : С потерями
Размер потока : 623 Мбайт (10%)
Заголовок : Dub
Язык : Russian
Default : Да
Forced : Нет
Аудио #2
Идентификатор : 6
Формат : AC-3
Формат/Информация : Audio Coding 3
Расширение режима : CM (complete main)
Параметр Endianness формата : Big
Идентификатор кодека : A_AC3
Продолжительность : 2 ч. 16 м.
Вид битрейта : Постоянный
Битрейт : 640 Кбит/сек
Каналы : 6 каналов
Расположение каналов : Front: L C R, Side: L R, LFE
Частота : 48,0 КГц
Битовая глубина : 16 бит
Метод сжатия : С потерями
Размер потока : 623 Мбайт (10%)
Заголовок : Original
Язык : English
Default : Нет
Forced : Нет
Текст #1
Идентификатор : 2
Формат : UTF-8
Идентификатор кодека : S_TEXT/UTF8
Идентификатор кодека/Информация : UTF-8 Plain Text
Заголовок : Forced
Язык : Russian
Default : Да
Forced : Нет
Текст #2
Идентификатор : 3
Формат : UTF-8
Идентификатор кодека : S_TEXT/UTF8
Идентификатор кодека/Информация : UTF-8 Plain Text
Заголовок : Full
Язык : Russian
Default : Нет
Forced : Нет
Текст #3
Идентификатор : 4
Формат : UTF-8
Идентификатор кодека : S_TEXT/UTF8
Идентификатор кодека/Информация : UTF-8 Plain Text
Заголовок : Full
Язык : English
Default : Нет
Forced : Нет
Меню
00:00:00.000 : en:Chapter 00
00:00:21.104 : en:Chapter 01
00:01:52.737 : en:Chapter 02
00:07:55.349 : en:Chapter 03
00:09:55.970 : en:Chapter 04
00:11:18.761 : en:Chapter 05
00:13:24.178 : en:Chapter 06
00:14:49.805 : en:Chapter 07
00:17:14.241 : en:Chapter 08
00:20:40.948 : en:Chapter 09
00:22:25.301 : en:Chapter 10
00:25:12.886 : en:Chapter 11
00:29:32.812 : en:Chapter 12
00:31:41.482 : en:Chapter 13
00:35:51.732 : en:Chapter 14
00:40:48.571 : en:Chapter 15
00:44:16.320 : en:Chapter 16
00:52:04.579 : en:Chapter 17
00:55:03.842 : en:Chapter 18
00:58:27.921 : en:Chapter 19
01:02:27.702 : en:Chapter 20
01:05:33.012 : en:Chapter 21
01:10:06.911 : en:Chapter 22
01:11:17.939 : en:Chapter 23
01:16:20.951 : en:Chapter 24
01:18:08.100 : en:Chapter 25
01:20:26.363 : en:Chapter 26
01:24:18.178 : en:Chapter 27
01:26:44.782 : en:Chapter 28
01:29:54.722 : en:Chapter 29
01:31:02.415 : en:Chapter 30
01:33:08.541 : en:Chapter 31
01:37:21.417 : en:Chapter 32
01:39:06.314 : en:Chapter 33
01:42:33.730 : en:Chapter 34
01:44:41.566 : en:Chapter 35
01:46:19.247 : en:Chapter 36
01:48:07.731 : en:Chapter 37
01:50:24.951 : en:Chapter 38
01:56:47.667 : en:Chapter 39
01:59:13.062 : en:Chapter 40
02:00:31.390 : en:Chapter 41
02:01:21.315 : en:Chapter 42
02:02:23.377 : en:Chapter 43
02:03:56.971 : en:Chapter 44
02:05:15.132 : en:Chapter 45
02:06:25.995 : en:Chapter 46
02:07:23.177 : en:Chapter 47
02:08:28.992 : en:Chapter 48
02:09:53.535 : en:Chapter 49

Log x264

PLATFORM
------------------------------
OS Code: Microsoft Windows NT 6.1.7601 Service Pack 1
OS Name: Windows 7 Ultimate Service Pack 1 (x64)
Framework: 2.0.50727.5477 (v4.0)
AviSynth: AviSynth 2.58 MT v.6 (SVP edition), build:Oct 5 2010 [13:43:59]
CPU Info: AMD FX(tm)-8350 Eight-Core Processor (~3492), 8 core(s)
RAM Total: 8149Mb
Language: RUS (1251, ",")
SystemDrive: C:
XviD4PSP
------------------------------
Version: 5.10.330.0
Created: 19.03.2013 07:34:12
AppPath: C:\Program Files (x86)\XviD4PSP 5
TempPath: C:\Temp
FILES
------------------------------
Звездные войны 1 720p 60fps.mkv >
Звездные войны 1 720p 60fps.mkv
TASK
------------------------------
Format: MKV
Duration: 00:54:28:352 (195905)
VideoDecoder: DirectShowSource2
Resolution: 1920x1080 > 1280x544
Aspect: 2.3529
VCodecPreset: 720p 23-60fps
VEncodingMode: Quality
VideoCodec: h264 > x264
VideoBitrate: 29554 > Q16.0
Framerate: 23.976 > 59.940
FramerateModifier: AssumeFPS
SourceType: PROGRESSIVE
FieldOrder: UNKNOWN
SCRIPT
------------------------------
Import("C:\Program Files (x86)\XviD4PSP 5\dlls\AviSynth\functions\AudioFunctions.avs")
Import("C:\Program Files (x86)\XviD4PSP 5\dlls\AviSynth\functions\VideoFunctions.avs")
LoadPlugin("C:\Program Files (x86)\XviD4PSP 5\dlls\AviSynth\plugins\avss.dll")
DirectShowSource2("C:\Users\pOrtal\Downloads\Звездные войны 1 720p 60fps.mkv", fps=23.976, preroll=15, lavs="L3", lavd="L3")
ConvertToYV12()
Crop(0, 132, -0, -132)
Lanczos4Resize(1280, 544)
###[FILTERING]###
# This script was generated by SmoothVideo Project (SVP) Manager.
# Check http://www.svp-team.com for more details.
SetMemoryMax(1024)
global svp_scheduler=true
global threads=15
global svp_cache_fwd=threads+2
LoadPlugin("C:\Program Files (x86)\SVP\plugins\svpflow1.dll")
LoadPlugin("C:\Program Files (x86)\SVP\plugins\svpflow2.dll")
SetMTMode(3,threads)
SetMTMode(2)
global crop_params=""
global resize_string=""
global super_params="{scale:{up:0},gpu:1,rc:false}"
global analyse_params="{block:{overlap:0},main:{search:{coarse:{distance:-14,bad:{sad:2000}}}}}"
global smoothfps_params="{rate:{num:5,den:2},algo:23,mask:{cover:80},scene:{mode:0}}"
global demo_mode=0
stereo_type=0
stereo_left_selection=""
stereo_right_selection=""
########## BEGIN OF MSMoothFps.avs ##########
# This file is a part of SmoothVideo Project (SVP) 3.1.4
# This is NOT the full AVS script, all used variables are defined via
# JavaScript code that generates the full script text.
function interpolate(clip src)
{
input = crop_params=="" ? src : eval("src.crop("+crop_params+")")
input = resize_string=="" ? input : eval("input."+resize_string)
super=SVSuper(input, super_params)
vectors=SVAnalyse(super, analyse_params, src=input)
smooth=SVSmoothFps(input, super, vectors, smoothfps_params, mt=threads, url="www.svp-team.com")
return demo_mode==0 ? smooth : demo(input,smooth)
}
input=last
stereo_type==0 ? eval(""" interpolate(input)
""") : stereo_type==1 || stereo_type==3 ? eval("""
lf = interpolate(input.crop(0,0,input.width/2,0))"""+stereo_left_selection+"""
rf = interpolate(input.crop(input.width/2,0,0,0))"""+stereo_right_selection+"""
StackHorizontal(lf, rf)
""") : stereo_type==2 || stereo_type==4 ? Eval("""
lf = interpolate(input.crop(0,0,0,input.height/2))"""+stereo_left_selection+"""
rf = interpolate(input.crop(0,input.height/2,0,0))"""+stereo_right_selection+"""
StackVertical(lf, rf)""") : input
########### END OF MSMoothFps.avs ###########
###[FILTERING]###
AssumeFPS(59.940)
VIDEO ENCODING
------------------------------
Encoding video to: F:\Плавное\Звездные войны 1 720p 60fps.mkv
x264 Q16.0 1280x544 59.940fps (195905 frames)
x264.exe: --crf 16.0 --preset medium --profile high --level 4.1 --ref 9 --aq-strength 0.9 --deblock -2:-2 --merange 24 --no-chroma-me --bframes 6 --b-adapt 2 --no-fast-pskip --no-dct-decimate --psy-rd 1.00:0.10 --partitions none --subme 9 --me umh --no-mbtree --keyint 599 --sar 1:1 --output "F:\Плавное\Звездные войны 1 720p 60fps.mkv" "C:\Temp\0074.avs"
avs [info]: 1280x544p 1:1 @ 2997/50 fps (cfr)
x264 [info]: using SAR=1/1
x264 [info]: using cpu capabilities: MMX2 SSE2Fast SSSE3 SSE4.2 AVX XOP FMA4 FMA3 SSEMisalign LZCNT BMI1
x264 [info]: profile High, level 4.1
x264 [info]: frame I:2236 Avg QP:15.58 size: 99802
x264 [info]: frame P:136838 Avg QP:16.75 size: 22462
x264 [info]: frame B:350687 Avg QP:18.87 size: 5080
x264 [info]: consecutive B-frames: 5.6% 6.3% 11.4% 14.7% 55.4% 5.0% 1.5%
x264 [info]: mb I I16..4: 8.1% 70.8% 21.1%
x264 [info]: mb P I16..4: 4.3% 0.0% 0.0% P16..4: 86.8% 0.0% 0.0% 0.0% 0.0% skip: 8.8%
x264 [info]: mb B I16..4: 0.2% 0.0% 0.0% B16..8: 38.6% 0.0% 0.0% direct: 4.1% skip:57.1% L0:38.9% L1:48.6% BI:12.6%
x264 [info]: 8x8 transform intra:18.1% inter:63.6%
x264 [info]: coded y,uvDC,uvAC intra: 76.5% 78.6% 56.3% inter: 23.0% 26.0% 11.7%
x264 [info]: i16 v,h,dc,p: 24% 20% 12% 44%
x264 [info]: i8 v,h,dc,ddl,ddr,vr,hd,vl,hu: 12% 11% 5% 9% 12% 13% 13% 12% 14%
x264 [info]: i4 v,h,dc,ddl,ddr,vr,hd,vl,hu: 10% 10% 4% 10% 14% 14% 14% 12% 14%
x264 [info]: i8c dc,h,v,p: 44% 25% 16% 15%
x264 [info]: Weighted P-Frames: Y:3.6% UV:2.2%
x264 [info]: ref P L0: 52.9% 8.1% 16.6% 5.1% 5.0% 3.5% 3.7% 2.1% 2.4% 0.7% 0.0%
x264 [info]: ref B L0: 79.3% 12.7% 3.0% 1.8% 1.2% 1.1% 0.6% 0.4%
x264 [info]: ref B L1: 93.2% 6.8%
x264 [info]: kb/s:4971.99
x264 [total]: encoded 489761 frames, 33.35 fps, 4971.99 kb/s
TIME
------------------------------
Общее время кодирования: 4 hour 4 min 47 sec
Файл получился на: 4846.38 mb
Скриншоты:
--

Звездные войны: Эпизод 2 – Атака клонов / Star Wars: Episode II - Attack of the Clones

Звездные войны: Эпизод 2 – Атака клонов / Star Wars: Episode II - Attack of the ClonesОригинальное название: Star Wars: Episode II - Attack of the Clones
Год выпуска: 2002
Жанр: Фантастика, Фэнтези, Боевик
Производство: США
Описание фильма:
Действие разворачивается через 10 лет после событий, описанных в первом эпизоде знаменитой саги. Республика все глубже погружается в пучину противоречий и хаоса. Движение сепаратистов, представленное сотнями планет и могущественным альянсом корпораций, грозит стать новой угрозой для Галактики, с которой не смогут справиться даже джедаи.
Назревающий конфликт, заранее спланированный могущественными, но пока еще не разоблаченными силами, ведет к началу Клонических войн и к закату республики. Чтобы противостоять угрозе вселенских масштабов, Верховный канцлер Палпатин добивается консолидации власти в республике в своих руках и отдает приказ о создании республиканской армии для поддержки малочисленной группы джедаев в их борьбе с превосходящим противником.
Режиссер: Джордж Лукас
Актеры: Юэн МакГрегор, Хейден Кристенсен, Натали Портман, Кристофер Ли, Сэмюэл Л. Джексон, Фрэнк Оз, Иен МакДермид, Пернилла Аугуст, Темуэра Моррисон, Дэниэл Логан
Продолжительность: 02:22:28
Качество видео: BDRip
Перевод: Дублированный
Язык субтитров: Rus (форс.), Rus (полные), Eng (полные)
Вид субтитров: Вшитые

Видеокодек: MPEG-4 AVC/H.264
Битрейт видео: ~4411 kb/s
Размер кадра: 1280*544
Аудио 1 Русский: AC3 5.1, 640 kb/s
Аудио 1 Английский: AC3 5.1, 640 kb/s
Сэмпл: Ссылка

MI

Общее
Уникальный идентификатор : 195105451965783977091047050204931163925 (0x92C7F177387481F7AA981E4B57B40715)
Полное имя : F:\Звездные войны 720p 60fps\Звездные войны 2 720p 60fps.mkv
Формат : Matroska
Версия формата : Version 4 / Version 2
Размер файла : 5,78 Гбайт
Продолжительность : 2 ч. 22 м.
Общий поток : 5806 Кбит/сек
Дата кодирования : UTC 2014-06-29 03:02:59
Программа кодирования : mkvmerge v7.0.0 ('Where We Going') 64bit built on Jun 9 2014 15:16:27
Библиотека кодирования : libebml v1.3.0 + libmatroska v1.4.1
DURATION : 02:20:10.192000000
NUMBER_OF_FRAMES : 1213
NUMBER_OF_BYTES : 41619
_STATISTICS_WRITING_APP : mkvmerge v7.0.0 ('Where We Going') 64bit built on Jun 9 2014 15:16:27
_STATISTICS_WRITING_DATE_UTC : 2014-06-29 03:02:59
_STATISTICS_TAGS : BPS DURATION NUMBER_OF_FRAMES NUMBER_OF_BYTES
Видео
Идентификатор : 1
Формат : AVC
Формат/Информация : Advanced Video Codec
Профиль формата : [url=mailto:[email protected]][email protected][/url]
Параметр CABAC формата : Да
Параметр ReFrames формата : 9 кадров
Идентификатор кодека : V_MPEG4/ISO/AVC
Продолжительность : 2 ч. 22 м.
Битрейт : 4411 Кбит/сек
Ширина : 1280 пикселей
Высота : 544 пикселя
Соотношение сторон : 2,35:1
Режим частоты кадров : Постоянный
Частота кадров : 59,880 кадров/сек
Частота кадров в оригинале : 59,940 кадров/сек
Цветовое пространство : YUV
Субдискретизация насыщенности : 4:2:0
Битовая глубина : 8 бит
Тип развёртки : Прогрессивная
Бит/(Пиксели*Кадры) : 0.106
Размер потока : 4,39 Гбайт (76%)
Библиотека кодирования : x264 core 130 r2273 b3065e6
Настройки программы : cabac=1 / ref=9 / deblock=1:-2:-2 / analyse=0x3:0 / me=umh / subme=9 / psy=1 / psy_rd=1.00:0.10 / mixed_ref=1 / me_range=24 / chroma_me=0 / trellis=1 / 8x8dct=1 / cqm=0 / deadzone=21,11 / fast_pskip=0 / chroma_qp_offset=-3 / threads=12 / lookahead_threads=1 / sliced_threads=0 / nr=0 / decimate=0 / interlaced=0 / bluray_compat=0 / constrained_intra=0 / bframes=6 / b_pyramid=2 / b_adapt=2 / b_bias=0 / direct=1 / weightb=1 / open_gop=0 / weightp=2 / keyint=599 / keyint_min=59 / scenecut=40 / intra_refresh=0 / rc=crf / mbtree=0 / crf=16.0 / qcomp=0.60 / qpmin=0 / qpmax=69 / qpstep=4 / ip_ratio=1.40 / pb_ratio=1.30 / aq=1:0.90
Язык : English
Default : Да
Forced : Нет
DURATION : 02:22:27.848000000
NUMBER_OF_FRAMES : 512358
NUMBER_OF_BYTES : 4831554867
_STATISTICS_WRITING_APP : mkvmerge v7.0.0 ('Where We Going') 64bit built on Jun 9 2014 15:16:27
_STATISTICS_WRITING_DATE_UTC : 2014-06-29 03:02:59
_STATISTICS_TAGS : BPS DURATION NUMBER_OF_FRAMES NUMBER_OF_BYTES
Аудио #1
Идентификатор : 2
Формат : AC-3
Формат/Информация : Audio Coding 3
Расширение режима : CM (complete main)
Параметр Endianness формата : Big
Идентификатор кодека : A_AC3
Продолжительность : 2 ч. 22 м.
Вид битрейта : Постоянный
Битрейт : 640 Кбит/сек
Каналы : 6 каналов
Расположение каналов : Front: L C R, Side: L R, LFE
Частота : 48,0 КГц
Битовая глубина : 16 бит
Метод сжатия : С потерями
Размер потока : 652 Мбайт (11%)
Заголовок : Dub
Язык : Russian
Default : Да
Forced : Нет
Аудио #2
Идентификатор : 3
Формат : AC-3
Формат/Информация : Audio Coding 3
Расширение режима : CM (complete main)
Параметр Endianness формата : Big
Идентификатор кодека : A_AC3
Продолжительность : 2 ч. 22 м.
Вид битрейта : Постоянный
Битрейт : 640 Кбит/сек
Каналы : 6 каналов
Расположение каналов : Front: L C R, Side: L R, LFE
Частота : 48,0 КГц
Битовая глубина : 16 бит
Метод сжатия : С потерями
Размер потока : 652 Мбайт (11%)
Заголовок : Original
Язык : English
Default : Нет
Forced : Нет
Текст #1
Идентификатор : 4
Формат : UTF-8
Идентификатор кодека : S_TEXT/UTF8
Идентификатор кодека/Информация : UTF-8 Plain Text
Заголовок : Forced
Язык : Russian
Default : Да
Forced : Нет
Текст #2
Идентификатор : 5
Формат : UTF-8
Идентификатор кодека : S_TEXT/UTF8
Идентификатор кодека/Информация : UTF-8 Plain Text
Заголовок : Full
Язык : Russian
Default : Нет
Forced : Нет
Текст #3
Идентификатор : 6
Формат : UTF-8
Идентификатор кодека : S_TEXT/UTF8
Идентификатор кодека/Информация : UTF-8 Plain Text
Заголовок : Full
Язык : English
Default : Нет
Forced : Нет
Меню
00:00:00.000 : en:Chapter 00
00:00:23.440 : en:Chapter 01
00:01:50.527 : en:Chapter 02
00:04:22.095 : en:Chapter 03
00:07:00.002 : en:Chapter 04
00:10:28.961 : en:Chapter 05
00:14:19.899 : en:Chapter 06
00:21:35.291 : en:Chapter 07
00:24:48.236 : en:Chapter 08
00:29:45.866 : en:Chapter 09
00:31:33.473 : en:Chapter 10
00:33:48.526 : en:Chapter 11
00:34:50.505 : en:Chapter 12
00:36:05.121 : en:Chapter 13
00:38:25.927 : en:Chapter 14
00:39:25.362 : en:Chapter 15
00:40:56.369 : en:Chapter 16
00:42:12.780 : en:Chapter 17
00:44:02.014 : en:Chapter 18
00:45:50.414 : en:Chapter 19
00:47:50.074 : en:Chapter 20
00:50:21.016 : en:Chapter 21
00:53:01.427 : en:Chapter 22
00:56:44.818 : en:Chapter 23
00:58:56.699 : en:Chapter 24
01:00:46.059 : en:Chapter 25
01:03:41.192 : en:Chapter 26
01:06:24.355 : en:Chapter 27
01:11:18.774 : en:Chapter 28
01:14:01.353 : en:Chapter 29
01:15:23.475 : en:Chapter 30
01:17:48.872 : en:Chapter 31
01:21:40.353 : en:Chapter 32
01:23:46.895 : en:Chapter 33
01:28:10.158 : en:Chapter 34
01:30:52.904 : en:Chapter 35
01:33:38.487 : en:Chapter 36
01:35:27.845 : en:Chapter 37
01:42:44.867 : en:Chapter 38
01:45:14.015 : en:Chapter 39
01:49:53.627 : en:Chapter 40
01:56:22.475 : en:Chapter 41
01:57:47.601 : en:Chapter 42
02:00:29.180 : en:Chapter 43
02:04:48.980 : en:Chapter 44
02:07:41.944 : en:Chapter 45
02:11:23.667 : en:Chapter 46
02:12:54.882 : en:Chapter 47
02:14:49.247 : en:Chapter 48
02:15:54.938 : en:Chapter 49

Log x264

PLATFORM
------------------------------
OS Code: Microsoft Windows NT 6.1.7601 Service Pack 1
OS Name: Windows 7 Ultimate Service Pack 1 (x64)
Framework: 2.0.50727.5477 (v4.0)
AviSynth: AviSynth 2.58 MT v.6 (SVP edition), build:Oct 5 2010 [13:43:59]
CPU Info: AMD FX(tm)-8350 Eight-Core Processor (~3692), 8 core(s)
RAM Total: 8148Mb
Language: RUS (1251, ",")
SystemDrive: C:
XviD4PSP
------------------------------
Version: 5.10.330.0
Created: 19.03.2013 07:34:12
AppPath: C:\Program Files (x86)\XviD4PSP 5
TempPath: C:\Temp
FILES
------------------------------
Звездные войны 2 720p 60fps.mkv >
Звездные войны 2 720p 60fps.mkv
TASK
------------------------------
Format: MKV
Duration: 00:56:59:152 (204944)
VideoDecoder: DirectShowSource
Resolution: 1920x1080 > 1280x544
Aspect: 2.3529
VCodecPreset: 720p 23-60fps
VEncodingMode: Quality
VideoCodec: h264 > x264
VideoBitrate: 28030 > Q16.0
Framerate: 23.976 > 59.940
FramerateModifier: AssumeFPS
SourceType: PROGRESSIVE
FieldOrder: UNKNOWN
SCRIPT
------------------------------
Import("C:\Program Files (x86)\XviD4PSP 5\dlls\AviSynth\functions\AudioFunctions.avs")
Import("C:\Program Files (x86)\XviD4PSP 5\dlls\AviSynth\functions\VideoFunctions.avs")
DirectShowSource("C:\Users\pOrtal\Downloads\Звездные войны 2 720p 60fps.mkv", audio=false, fps=23.976, convertfps=true)
ConvertToYV12()
Crop(0, 132, -0, -132)
Lanczos4Resize(1280, 544)
###[FILTERING]###
# This script was generated by SmoothVideo Project (SVP) Manager.
# Check http://www.svp-team.com for more details.
SetMemoryMax(1024)
global svp_scheduler=true
global threads=15
global svp_cache_fwd=threads+2
LoadPlugin("C:\Program Files (x86)\SVP\plugins\svpflow1.dll")
LoadPlugin("C:\Program Files (x86)\SVP\plugins\svpflow2.dll")
SetMTMode(3,threads)
SetMTMode(2)
global crop_params=""
global resize_string=""
global super_params="{scale:{up:0},gpu:1,rc:false}"
global analyse_params="{block:{overlap:0},main:{search:{coarse:{distance:-14,bad:{sad:2000}}}}}"
global smoothfps_params="{rate:{num:5,den:2},algo:23,mask:{cover:80},scene:{mode:0}}"
global demo_mode=0
stereo_type=0
stereo_left_selection=""
stereo_right_selection=""
########## BEGIN OF MSMoothFps.avs ##########
# This file is a part of SmoothVideo Project (SVP) 3.1.4
# This is NOT the full AVS script, all used variables are defined via
# JavaScript code that generates the full script text.
function interpolate(clip src)
{
input = crop_params=="" ? src : eval("src.crop("+crop_params+")")
input = resize_string=="" ? input : eval("input."+resize_string)
super=SVSuper(input, super_params)
vectors=SVAnalyse(super, analyse_params, src=input)
smooth=SVSmoothFps(input, super, vectors, smoothfps_params, mt=threads, url="www.svp-team.com")
return demo_mode==0 ? smooth : demo(input,smooth)
}
input=last
stereo_type==0 ? eval(""" interpolate(input)
""") : stereo_type==1 || stereo_type==3 ? eval("""
lf = interpolate(input.crop(0,0,input.width/2,0))"""+stereo_left_selection+"""
rf = interpolate(input.crop(input.width/2,0,0,0))"""+stereo_right_selection+"""
StackHorizontal(lf, rf)
""") : stereo_type==2 || stereo_type==4 ? Eval("""
lf = interpolate(input.crop(0,0,0,input.height/2))"""+stereo_left_selection+"""
rf = interpolate(input.crop(0,input.height/2,0,0))"""+stereo_right_selection+"""
StackVertical(lf, rf)""") : input
########### END OF MSMoothFps.avs ###########
###[FILTERING]###
AssumeFPS(59.940)
VIDEO ENCODING
------------------------------
Encoding video to: F:\Плавное\Звездные войны 2 720p 60fps.mkv
x264 Q16.0 1280x544 59.940fps (204944 frames)
x264.exe: --crf 16.0 --preset medium --profile high --level 4.1 --ref 9 --aq-strength 0.9 --deblock -2:-2 --merange 24 --no-chroma-me --bframes 6 --b-adapt 2 --no-fast-pskip --no-dct-decimate --psy-rd 1.00:0.10 --partitions none --subme 9 --me umh --no-mbtree --keyint 599 --sar 1:1 --output "F:\Плавное\Звездные войны 2 720p 60fps.mkv" "C:\Temp\0061.avs"
avs [info]: 1280x544p 1:1 @ 2997/50 fps (cfr)
x264 [info]: using SAR=1/1
x264 [info]: using cpu capabilities: MMX2 SSE2Fast SSSE3 SSE4.2 AVX XOP FMA4 FMA3 SSEMisalign LZCNT BMI1
x264 [info]: profile High, level 4.1
x264 [info]: frame I:2102 Avg QP:14.45 size: 80254
x264 [info]: frame P:131286 Avg QP:15.53 size: 21923
x264 [info]: frame B:378970 Avg QP:17.84 size: 4709
x264 [info]: consecutive B-frames: 3.3% 3.5% 12.6% 19.8% 52.3% 6.0% 2.4%
x264 [info]: mb I I16..4: 7.1% 71.5% 21.4%
x264 [info]: mb P I16..4: 6.1% 0.0% 0.0% P16..4: 86.7% 0.0% 0.0% 0.0% 0.0% skip: 7.2%
x264 [info]: mb B I16..4: 0.3% 0.0% 0.0% B16..8: 36.7% 0.0% 0.0% direct: 4.2% skip:58.8% L0:39.3% L1:47.6% BI:13.1%
x264 [info]: 8x8 transform intra:13.5% inter:63.5%
x264 [info]: coded y,uvDC,uvAC intra: 70.8% 87.4% 69.9% inter: 20.8% 27.2% 14.5%
x264 [info]: i16 v,h,dc,p: 27% 20% 16% 37%
x264 [info]: i8 v,h,dc,ddl,ddr,vr,hd,vl,hu: 13% 14% 8% 8% 9% 10% 11% 11% 15%
x264 [info]: i4 v,h,dc,ddl,ddr,vr,hd,vl,hu: 11% 11% 4% 9% 14% 13% 13% 11% 14%
x264 [info]: i8c dc,h,v,p: 45% 24% 17% 14%
x264 [info]: Weighted P-Frames: Y:4.6% UV:3.2%
x264 [info]: ref P L0: 52.3% 6.7% 18.0% 5.9% 5.0% 3.7% 3.4% 2.1% 2.2% 0.6% 0.1%
x264 [info]: ref B L0: 76.4% 14.0% 3.9% 2.1% 1.5% 1.2% 0.6% 0.3%
x264 [info]: ref B L1: 91.7% 8.3%
x264 [info]: kb/s:4521.89
x264 [total]: encoded 512358 frames, 32.96 fps, 4521.89 kb/s
TIME
------------------------------
Общее время кодирования: 4 hour 19 min 7 sec
Файл получился на: 4611.33 mb
Скриншоты:
--

Звездные войны: Эпизод 3 – Месть Ситхов / Star Wars: Episode III - Revenge of the Sith

Звездные войны: Эпизод 3 – Месть Ситхов / Star Wars: Episode III - Revenge of the SithОригинальное название: Star Wars: Episode III - Revenge of the Sith
Год выпуска: 2005
Жанр: Фантастика, Фэнтези, Боевик
Производство: США
Описание фильма:
Со времен, описанных во втором эпизоде, прошло 3 года. Энакин окончательно встает на темную сторону силы и превращается в Дарта Вейдера. Республика гибнет под ударами крепнущей Империи, Джедаи теряют контроль над галактикой, а Падме готовится к тому, чтобы стать матерью. Все эти события будут разворачиваться на фоне грандиозной битвы, знаменующей финал Клонических войн…
Режиссер: Джордж Лукас
Актеры: Юэн МакГрегор, Хейден Кристенсен, Натали Портман, Кристофер Ли, Сэмюэл Л. Джексон, Фрэнк Оз, Иен МакДермид, Пернилла Аугуст, Темуэра Моррисон, Дэниэл Логан
Продолжительность: 02:20:06
Качество видео: BDRip
Перевод: Дублированный
Язык субтитров: Rus (форс.), Rus (полные), Eng (полные)
Вид субтитров: Вшитые

Видеокодек: MPEG-4 AVC/H.264
Битрейт видео: ~5450 kb/s
Размер кадра: 1280*544
Аудио 1 Русский: AC3 5.1, 640 kb/s
Аудио 1 Английский: AC3 5.1, 640 kb/s
Сэмпл: Ссылка

MI

Общее
Уникальный идентификатор : 209644087106849792361923012177853248274 (0x9DB7FB8544FC4D7C84AFE74E04517312)
Полное имя : F:\Звездные войны 720p 60fps\Звездные войны 3 720p 60fps.mkv
Формат : Matroska
Версия формата : Version 4 / Version 2
Размер файла : 6,72 Гбайт
Продолжительность : 2 ч. 20 м.
Общий поток : 6866 Кбит/сек
Дата кодирования : UTC 2014-06-23 21:32:42
Программа кодирования : mkvmerge v7.0.0 ('Where We Going') 64bit built on Jun 9 2014 15:16:27
Библиотека кодирования : libebml v1.3.0 + libmatroska v1.4.1
DURATION : 02:07:31.740000000
NUMBER_OF_FRAMES : 1109
NUMBER_OF_BYTES : 38339
_STATISTICS_WRITING_APP : mkvmerge v7.0.0 ('Where We Going') 64bit built on Jun 9 2014 15:16:27
_STATISTICS_WRITING_DATE_UTC : 2014-06-23 21:32:42
_STATISTICS_TAGS : BPS DURATION NUMBER_OF_FRAMES NUMBER_OF_BYTES
Видео
Идентификатор : 1
Формат : AVC
Формат/Информация : Advanced Video Codec
Профиль формата : [url=mailto:[email protected]][email protected][/url]
Параметр CABAC формата : Да
Параметр ReFrames формата : 9 кадров
Идентификатор кодека : V_MPEG4/ISO/AVC
Продолжительность : 2 ч. 20 м.
Битрейт : 5450 Кбит/сек
Ширина : 1280 пикселей
Высота : 544 пикселя
Соотношение сторон : 2,35:1
Режим частоты кадров : Постоянный
Частота кадров : 59,880 кадров/сек
Частота кадров в оригинале : 59,940 кадров/сек
Цветовое пространство : YUV
Субдискретизация насыщенности : 4:2:0
Битовая глубина : 8 бит
Тип развёртки : Прогрессивная
Бит/(Пиксели*Кадры) : 0.131
Размер потока : 5,33 Гбайт (79%)
Библиотека кодирования : x264 core 130 r2273 b3065e6
Настройки программы : cabac=1 / ref=9 / deblock=1:-2:-2 / analyse=0x3:0 / me=umh / subme=9 / psy=1 / psy_rd=1.00:0.10 / mixed_ref=1 / me_range=24 / chroma_me=0 / trellis=1 / 8x8dct=1 / cqm=0 / deadzone=21,11 / fast_pskip=0 / chroma_qp_offset=-3 / threads=12 / lookahead_threads=1 / sliced_threads=0 / nr=0 / decimate=0 / interlaced=0 / bluray_compat=0 / constrained_intra=0 / bframes=6 / b_pyramid=2 / b_adapt=2 / b_bias=0 / direct=1 / weightb=1 / open_gop=0 / weightp=2 / keyint=599 / keyint_min=59 / scenecut=40 / intra_refresh=0 / rc=crf / mbtree=0 / crf=16.0 / qcomp=0.60 / qpmin=0 / qpmax=69 / qpstep=4 / ip_ratio=1.40 / pb_ratio=1.30 / aq=1:0.90
Язык : English
Default : Да
Forced : Нет
DURATION : 02:20:05.789000000
NUMBER_OF_FRAMES : 503843
NUMBER_OF_BYTES : 5865172427
_STATISTICS_WRITING_APP : mkvmerge v7.0.0 ('Where We Going') 64bit built on Jun 9 2014 15:16:27
_STATISTICS_WRITING_DATE_UTC : 2014-06-23 21:32:42
_STATISTICS_TAGS : BPS DURATION NUMBER_OF_FRAMES NUMBER_OF_BYTES
Аудио #1
Идентификатор : 2
Формат : AC-3
Формат/Информация : Audio Coding 3
Расширение режима : CM (complete main)
Параметр Endianness формата : Big
Идентификатор кодека : A_AC3
Продолжительность : 2 ч. 20 м.
Вид битрейта : Постоянный
Битрейт : 640 Кбит/сек
Каналы : 6 каналов
Расположение каналов : Front: L C R, Side: L R, LFE
Частота : 48,0 КГц
Битовая глубина : 16 бит
Метод сжатия : С потерями
Размер потока : 641 Мбайт (9%)
Заголовок : Dub
Язык : Russian
Default : Да
Forced : Нет
Аудио #2
Идентификатор : 3
Формат : AC-3
Формат/Информация : Audio Coding 3
Расширение режима : CM (complete main)
Параметр Endianness формата : Big
Идентификатор кодека : A_AC3
Продолжительность : 2 ч. 20 м.
Вид битрейта : Постоянный
Битрейт : 640 Кбит/сек
Каналы : 6 каналов
Расположение каналов : Front: L C R, Side: L R, LFE
Частота : 48,0 КГц
Битовая глубина : 16 бит
Метод сжатия : С потерями
Размер потока : 641 Мбайт (9%)
Язык : English
Default : Нет
Forced : Нет
Текст #1
Идентификатор : 4
Формат : UTF-8
Идентификатор кодека : S_TEXT/UTF8
Идентификатор кодека/Информация : UTF-8 Plain Text
Заголовок : Forced
Язык : Russian
Default : Да
Forced : Нет
Текст #2
Идентификатор : 5
Формат : UTF-8
Идентификатор кодека : S_TEXT/UTF8
Идентификатор кодека/Информация : UTF-8 Plain Text
Заголовок : Full
Язык : Russian
Default : Нет
Forced : Нет
Текст #3
Идентификатор : 6
Формат : UTF-8
Идентификатор кодека : S_TEXT/UTF8
Идентификатор кодека/Информация : UTF-8 Plain Text
Заголовок : Full
Язык : English
Default : Нет
Forced : Нет
Меню #1
00:00:00.000 : en:Opening Logos
00:00:23.523 : en:Revenge of the Sith
00:01:50.068 : en:Battle Over Coruscant
00:08:28.133 : en:General Grievous
00:11:23.349 : en:Rescuing the Chancellor
00:18:33.738 : en:Confronting Grievous
00:23:40.461 : en:Happy Reunions
00:27:37.698 : en:Grievous on Utapau
00:29:12.960 : en:Bad Dreams
00:33:18.914 : en:Counsel With Yoda
00:35:45.435 : en:The Chancellor's Request
00:36:47.997 : en:On the Jedi Council
00:38:21.466 : en:Secret Assignment
00:40:17.457 : en:Not the Chosen One?
00:41:18.601 : en:Seeds of Distrust
00:42:41.058 : en:Tragedy of Darth Plagueis
00:48:01.587 : en:Kashyyyk
00:50:20.517 : en:Brothers' Farewell
00:52:24.933 : en:A Hero Lost
00:53:58.026 : en:Arrival on Utapau
00:56:26.466 : en:Obi-Wan Vs. Grievous
01:00:56.278 : en:Jedi War Council
01:01:56.546 : en:Sidious Revealed
01:05:26.047 : en:Utapau Chase
01:07:40.598 : en:Mace Learns the Truth
01:09:06.976 : en:Anakin's Fatal Decision
01:10:52.999 : en:Mace Vs. Sidious
01:15:19.223 : en:Rise Lord Vader
01:19:15.250 : en:March on the Jedi Temple
01:20:37.458 : en:Order Sixty-Six
01:24:20.597 : en:Time to Leave
01:27:56.521 : en:"Wait for Me"
01:29:57.392 : en:The Heroes Regroup
01:33:40.406 : en:Birth of the Empire
01:36:39.460 : en:The Terrible Truth
01:38:35.535 : en:Obi-Wan Confronts Padme
01:41:24.370 : en:Padme's Departure
01:42:57.004 : en:"You're Breaking My Heart"
01:48:18.784 : en:Yoda Visits the Emperor
01:50:59.444 : en:Battle of the Heroes
01:52:44.007 : en:Yoda Vs. Sidious
01:54:22.856 : en:Narrow Escapes
01:56:54.925 : en:Immolation
02:02:20.875 : en:The Emperor Arrives
02:03:32.864 : en:Secret Delivery
02:05:19.637 : en:Birth and Rebirth
02:07:37.108 : en:Darth Vader Awakes
02:08:57.063 : en:The Future of the Twins
02:12:04.959 : en:A New Hope
02:13:47.353 : en:End Credits
Меню #2
00:00:00.097 : en:00:00:00.097 / en:00:00:00.097

Log x264

PLATFORM
------------------------------
OS Code: Microsoft Windows NT 6.1.7601 Service Pack 1
OS Name: Windows 7 Ultimate Service Pack 1 (x64)
Framework: 2.0.50727.5477 (v4.0)
AviSynth: AviSynth 2.58 MT v.6 (SVP edition), build:Oct 5 2010 [13:43:59]
CPU Info: AMD FX(tm)-8350 Eight-Core Processor (~3492), 8 core(s)
RAM Total: 8149Mb
Language: RUS (1251, ",")
SystemDrive: C:
XviD4PSP
------------------------------
Version: 5.10.330.0
Created: 19.03.2013 07:34:12
AppPath: C:\Program Files (x86)\XviD4PSP 5
TempPath: C:\Temp
FILES
------------------------------
Звездные войны 3 720p 60fps.mkv >
Звездные войны 3 720p 60fps.mkv
TASK
------------------------------
Format: MKV
Duration: 00:56:02:329 (201538)
VideoDecoder: DirectShowSource2
Resolution: 1920x1080 > 1280x544
Aspect: 2.3447 > 2.3529
VCodecPreset: 720p 23-60fps
VEncodingMode: Quality
VideoCodec: h264 > x264
VideoBitrate: 29028 > Q16.0
Framerate: 23.976 > 59.940
FramerateModifier: AssumeFPS
SourceType: PROGRESSIVE
FieldOrder: UNKNOWN
SCRIPT
------------------------------
Import("C:\Program Files (x86)\XviD4PSP 5\dlls\AviSynth\functions\AudioFunctions.avs")
Import("C:\Program Files (x86)\XviD4PSP 5\dlls\AviSynth\functions\VideoFunctions.avs")
LoadPlugin("C:\Program Files (x86)\XviD4PSP 5\dlls\AviSynth\plugins\avss.dll")
SetMemoryMax(2048)
SetMTMode(5, 8)
DirectShowSource2("C:\Users\pOrtal\Downloads\Звездные войны 3 720p 60fps.mkv", fps=23.976, preroll=15, lavs="L3", lavd="L0t8hm1hc15hr7")
SetMTMode(2)
ConvertToYV12()
Crop(0, 132, -2, -130)
Lanczos4Resize(1280, 544)
###[FILTERING]###
# This script was generated by SmoothVideo Project (SVP) Manager.
# Check http://www.svp-team.com for more details.
SetMemoryMax(1024)
global svp_scheduler=true
global threads=15
global svp_cache_fwd=threads+2
LoadPlugin("C:\Program Files (x86)\SVP\plugins\svpflow1.dll")
LoadPlugin("C:\Program Files (x86)\SVP\plugins\svpflow2.dll")
SetMTMode(3,threads)
SetMTMode(2)
global crop_params=""
global resize_string=""
global super_params="{scale:{up:0},gpu:1,rc:false}"
global analyse_params="{block:{overlap:0},main:{search:{coarse:{distance:-14,bad:{sad:2000}}}}}"
global smoothfps_params="{rate:{num:5,den:2},algo:23,mask:{cover:80},scene:{mode:0}}"
global demo_mode=0
stereo_type=0
stereo_left_selection=""
stereo_right_selection=""
########## BEGIN OF MSMoothFps.avs ##########
# This file is a part of SmoothVideo Project (SVP) 3.1.4
# This is NOT the full AVS script, all used variables are defined via
# JavaScript code that generates the full script text.
function interpolate(clip src)
{
input = crop_params=="" ? src : eval("src.crop("+crop_params+")")
input = resize_string=="" ? input : eval("input."+resize_string)
super=SVSuper(input, super_params)
vectors=SVAnalyse(super, analyse_params, src=input)
smooth=SVSmoothFps(input, super, vectors, smoothfps_params, mt=threads, url="www.svp-team.com")
return demo_mode==0 ? smooth : demo(input,smooth)
}
input=last
stereo_type==0 ? eval(""" interpolate(input)
""") : stereo_type==1 || stereo_type==3 ? eval("""
lf = interpolate(input.crop(0,0,input.width/2,0))"""+stereo_left_selection+"""
rf = interpolate(input.crop(input.width/2,0,0,0))"""+stereo_right_selection+"""
StackHorizontal(lf, rf)
""") : stereo_type==2 || stereo_type==4 ? Eval("""
lf = interpolate(input.crop(0,0,0,input.height/2))"""+stereo_left_selection+"""
rf = interpolate(input.crop(0,input.height/2,0,0))"""+stereo_right_selection+"""
StackVertical(lf, rf)""") : input
########### END OF MSMoothFps.avs ###########
###[FILTERING]###
AssumeFPS(59.940)
VIDEO ENCODING
------------------------------
Encoding video to: F:\Плавное\Звездные войны 3 720p 60fps.mkv
x264 Q16.0 1280x544 59.940fps (201538 frames)
x264.exe: --crf 16.0 --preset medium --profile high --level 4.1 --ref 9 --aq-strength 0.9 --deblock -2:-2 --merange 24 --no-chroma-me --bframes 6 --b-adapt 2 --no-fast-pskip --no-dct-decimate --psy-rd 1.00:0.10 --partitions none --subme 9 --me umh --no-mbtree --keyint 599 --sar 1:1 --output "F:\Плавное\Звездные войны 3 720p 60fps.mkv" "C:\Temp\0116.avs"
avs [info]: 1280x544p 1:1 @ 2997/50 fps (cfr)
x264 [info]: using SAR=1/1
x264 [info]: using cpu capabilities: MMX2 SSE2Fast SSSE3 SSE4.2 AVX XOP FMA4 FMA3 SSEMisalign LZCNT BMI1
x264 [info]: profile High, level 4.1
x264 [info]: frame I:2136 Avg QP:16.07 size:107385
x264 [info]: frame P:128602 Avg QP:16.94 size: 27101
x264 [info]: frame B:373105 Avg QP:19.11 size: 5764
x264 [info]: consecutive B-frames: 3.4% 5.4% 10.3% 11.0% 61.4% 5.4% 2.9%
x264 [info]: mb I I16..4: 8.5% 72.5% 19.1%
x264 [info]: mb P I16..4: 5.4% 0.0% 0.0% P16..4: 88.2% 0.0% 0.0% 0.0% 0.0% skip: 6.4%
x264 [info]: mb B I16..4: 0.2% 0.0% 0.0% B16..8: 42.0% 0.0% 0.0% direct: 4.3% skip:53.5% L0:40.0% L1:49.9% BI:10.0%
x264 [info]: 8x8 transform intra:15.9% inter:65.3%
x264 [info]: coded y,uvDC,uvAC intra: 77.5% 81.8% 63.7% inter: 24.4% 28.4% 13.9%
x264 [info]: i16 v,h,dc,p: 23% 20% 14% 43%
x264 [info]: i8 v,h,dc,ddl,ddr,vr,hd,vl,hu: 9% 12% 5% 10% 13% 12% 14% 11% 14%
x264 [info]: i4 v,h,dc,ddl,ddr,vr,hd,vl,hu: 7% 11% 3% 10% 15% 13% 15% 11% 15%
x264 [info]: i8c dc,h,v,p: 46% 24% 14% 17%
x264 [info]: Weighted P-Frames: Y:5.7% UV:4.1%
x264 [info]: ref P L0: 48.5% 8.4% 18.3% 5.6% 5.6% 3.7% 4.1% 2.3% 2.8% 0.6% 0.1%
x264 [info]: ref B L0: 80.6% 11.8% 2.9% 1.8% 1.1% 1.0% 0.5% 0.3%
x264 [info]: ref B L1: 93.2% 6.8%
x264 [info]: kb/s:5582.03
x264 [total]: encoded 503843 frames, 31.56 fps, 5582.03 kb/s
TIME
------------------------------
Общее время кодирования: 4 hour 26 min 6 sec
Файл получился на: 5597.04 mb
Скриншоты:
--

Звездные войны: Эпизод 4 – Новая надежда / Star Wars. Episode IV: A New Hope

Звездные войны: Эпизод 4 – Новая надежда / Star Wars. Episode IV: A New HopeОригинальное название: Star Wars. Episode IV: A New Hope
Год выпуска: 1977
Жанр: Фантастика, Фэнтези, Боевик
Производство: США
Описание фильма:
Татуин. Планета-пустыня. Уже постаревший рыцарь Джедай Оби Ван Кеноби спасает молодого Люка Скайуокера, когда тот пытается отыскать пропавшего дроида. С этого момента Люк осознает свое истинное назначение: он один из рыцарей Джедай. В то время как гражданская война охватила галактику, а войска повстанцев ведут бои против сил злого Императора, к Люку и Оби Вану присоединяется отчаянный пилот-наемник Хан Соло, и в сопровождении двух дроидов, R2D2 и C-3PO, этот необычный отряд отправляется на поиски предводителя повстанцев — принцессы Леи. Героям предстоит отчаянная схватка с устрашающим Дартом Вейдером — правой рукой Императора и его секретным оружием — «Звездой Смерти».
Режиссер: Джордж Лукас
Актеры: Марк Хэмилл, Харрисон Форд, Кэрри Фишер, Питер Кушинг, Алек Гиннесс, Энтони Дэниелс, Кенни Бейкер, Питер Мейхью, Дэвид Праус, Фил Браун
Продолжительность: 02:04:45
Качество видео: BDRip
Перевод: Дублированный
Язык субтитров: Rus (форс.), Rus
[sp
Яндекс.Метрика
Рейтинг@Mail.ru