(Progressive Trance, Big Room) VA - DJ Top 100 vol.7 (2013) FLAC (image+.cue), lossless

 

Создавать темы 01-Июл-2014 21:31

VA - DJ Top 100 vol.7 (2013)-

Год: 2013
Жанр: Progressive Trance , Big Room
Продолжительность: 04:12:49
Лейбл: Open Gate Records
Каталог №: ПРЗ CD08425
Тип рипа: image+.cue
Кодек: FLAC
Битрейт: Lossless
Трек лист:

CD1:


Трек лист:
01. Hardwell & MAKJ - Countdown
02. Ferry Corsten - Diss!
03. Blasterjaxx - Fifteen (Hardwell Edit)
04. Dannic & Sick Individuals - Blueprint
05. Dyro - Go Down
06. W&W & Ummet Ozcan - The Code
07. Wildstylez & Max Enforcer - Lose Control (Feat Frankie McCoy)
08. Richard Durand - Super Dad
09. Marco V - Second Bite (Dannic Remix)
10. Craig Connelly & Christina Novelli - Black Hole (Blake Jarrell Remix)
Продолжительность: 00:55:41

Отчёт ЕАС:

Exact Audio Copy V1.0 beta 3 from 29. August 2011
EAC extraction logfile from 29. June 2014, 17:15
Various / Top DJ 100 Volume 7 (CD1)
Used drive  : MAD DOG MD-16XDVD9A2   Adapter: 0  ID: 1
Read mode               : Secure
Utilize accurate stream : Yes
Defeat audio cache      : Yes
Make use of C2 pointers : No
Read offset correction                      : 48
Overread into Lead-In and Lead-Out          : No
Fill up missing offset samples with silence : Yes
Delete leading and trailing silent blocks   : No
Null samples used in CRC calculations       : Yes
Used interface                              : Native Win32 interface for Win NT & 2000
Used output format              : User Defined Encoder
Selected bitrate                : 768 kBit/s
Quality                         : High
Add ID3 tag                     : No
Command line compressor         : C:\Program Files\Exact Audio Copy\Flac\flac.exe
Additional command line options :  -8 -V -T "TITLE=%title%" -T "ARTIST=%artist%" -T "ALBUMARTIST=%albumartist%" -T "ALBUM=%albumtitle%" -T "DATE=%year%" -T "TRACKNUMBER=%tracknr%" -T "TRACKTOTAL=%numtracks%" -T "GENRE=%genre%" -T "COMMENT=%comment%" -T "PERFORMER=%albuminterpret%" -T "COMPOSER=%composer%" %source% -o %dest%
TOC of the extracted CD
     Track |   Start  |  Length  | Start sector | End sector
    ---------------------------------------------------------
        1  |  0:00.00 |  4:38.32 |         0    |    20881
        2  |  4:38.32 |  6:02.01 |     20882    |    48032
        3  | 10:40.33 |  5:07.43 |     48033    |    71100
        4  | 15:48.01 |  6:30.00 |     71101    |   100350
        5  | 22:18.01 |  4:55.31 |    100351    |   122506
        6  | 27:13.32 |  5:14.74 |    122507    |   146130
        7  | 32:28.31 |  5:30.64 |    146131    |   170944
        8  | 37:59.20 |  5:00.10 |    170945    |   193454
        9  | 42:59.30 |  6:01.71 |    193455    |   220600
       10  | 49:01.26 |  6:40.44 |    220601    |   250644
Range status and errors
Selected range
     Filename F:\NNM\Various - Top DJ 100 Volume 7 (CD1).wav
     Peak level 100.0 %
     Extraction speed 5.5 X
     Range quality 99.9 %
     Test CRC 8743A800
     Copy CRC 8743A800
     Copy OK
No errors occurred
End of status report
---- CUETools DB Plugin V2.1.3
[CTDB TOCID: zMfr7KWgVT35mYqCy_Rj1Y6Tbmw-] disk not present in database, Submit result: unrecognized or virtual drive
==== Log checksum 881A521787C3651CCCF04E3E718AFA06FF8676C62DD37763485B2C28FEAE2229 ====

Отчёт auCDtect Task manager:

-----------------------
DON'T MODIFY THIS FILE
-----------------------
PERFORMER: auCDtect Task Manager, ver. 1.5.1RC6 build 1.5.1.7
Copyright (c) 2008-2010 y-soft. All rights reserved
http://y-soft.org
ANALYZER: auCDtect: CD records authenticity detector, version 0.8.2
Copyright (c) 2004 Oleg Berngardt. All rights reserved.
Copyright (c) 2004 Alexander Djourik. All rights reserved.
FILE: Various - Top DJ 100 Volume 7 (CD1).flac
  Size: 440285168 Hash: 0133A6DCCF06F8C24AD240BE02630C83 Accuracy: -m0
  Conclusion: CDDA 100%
  Signature: A6194EAB399030C51468B6D1B3EC7BD4762E93A4

CD2:


Трек лист:
01. Armin van Buuren feat. Cindy Alma - Beautiful Life (Protoculture Remix)
02. Arty - Flashback
03. Solarstone - Love Theme For Blade Runner (Pure Mix)
04. Markus Schulz feat. Sarah Howells - Tempted (Dennis Sheperd Remix)
05. Aly & Fila vs Fady & Mina - The Journey (FSOE 300 Anthem)
06. ?rjan Nilsen feat. Christina Novelli - Hurricane
07. Andrew Rayel & Jwaydan - Until The End
08. John O'Callaghan feat. Erica Curran - I Believe (Giuseppe Ottaviani Remix)
09. Gabriel & Dresden feat. Neil Ormandy - Tomorrow Comes (Max Graham vs Protoculture Remix)
10. Above & Beyond feat. Zoe" Johnston - Alchemy (Jody Wisternoff Remix)
Продолжительность: 01:08:59

Отчёт ЕАС:

Exact Audio Copy V1.0 beta 3 from 29. August 2011
EAC extraction logfile from 29. June 2014, 18:47
Various / Top DJ 100 Volume 7 (CD2)
Used drive  : MAD DOG MD-16XDVD9A2   Adapter: 0  ID: 1
Read mode               : Secure
Utilize accurate stream : Yes
Defeat audio cache      : Yes
Make use of C2 pointers : No
Read offset correction                      : 48
Overread into Lead-In and Lead-Out          : No
Fill up missing offset samples with silence : Yes
Delete leading and trailing silent blocks   : No
Null samples used in CRC calculations       : Yes
Used interface                              : Native Win32 interface for Win NT & 2000
Used output format              : User Defined Encoder
Selected bitrate                : 768 kBit/s
Quality                         : High
Add ID3 tag                     : No
Command line compressor         : C:\Program Files\Exact Audio Copy\Flac\flac.exe
Additional command line options :  -8 -V -T "TITLE=%title%" -T "ARTIST=%artist%" -T "ALBUMARTIST=%albumartist%" -T "ALBUM=%albumtitle%" -T "DATE=%year%" -T "TRACKNUMBER=%tracknr%" -T "TRACKTOTAL=%numtracks%" -T "GENRE=%genre%" -T "COMMENT=%comment%" -T "PERFORMER=%albuminterpret%" -T "COMPOSER=%composer%" %source% -o %dest%
TOC of the extracted CD
     Track |   Start  |  Length  | Start sector | End sector
    ---------------------------------------------------------
        1  |  0:00.00 |  5:41.18 |         0    |    25592
        2  |  5:41.18 |  5:31.14 |     25593    |    50431
        3  | 11:12.32 |  8:43.03 |     50432    |    89659
        4  | 19:55.35 |  6:59.74 |     89660    |   121158
        5  | 26:55.34 |  8:27.32 |    121159    |   159215
        6  | 35:22.66 |  5:06.11 |    159216    |   182176
        7  | 40:29.02 |  6:46.11 |    182177    |   212637
        8  | 47:15.13 |  6:36.41 |    212638    |   242378
        9  | 53:51.54 |  5:44.23 |    242379    |   268201
       10  | 59:36.02 |  9:23.24 |    268202    |   310450
Range status and errors
Selected range
     Filename F:\NNM\Новая папка (2)\Various - Top DJ 100 Volume 7 (CD2).wav
     Peak level 100.0 %
     Extraction speed 1.9 X
     Range quality 99.9 %
     Test CRC 0AC7D081
     Copy CRC 0AC7D081
     Copy OK
No errors occurred
End of status report
---- CUETools DB Plugin V2.1.3
[CTDB TOCID: YGsQtFvB3dao2YVRKkWn0dS1LQA-] disk not present in database, Submit result: unrecognized or virtual drive
==== Log checksum 08F58440E3711E2A38FE83C039C6C438B513A8E337D9B70AE5CA5939143CFA7B ====

Отчёт auCDtect Task manager:

-----------------------
DON'T MODIFY THIS FILE
-----------------------
PERFORMER: auCDtect Task Manager, ver. 1.5.1RC6 build 1.5.1.7
Copyright (c) 2008-2010 y-soft. All rights reserved
http://y-soft.org
ANALYZER: auCDtect: CD records authenticity detector, version 0.8.2
Copyright (c) 2004 Oleg Berngardt. All rights reserved.
Copyright (c) 2004 Alexander Djourik. All rights reserved.
FILE: Various - Top DJ 100 Volume 7 (CD2).flac
  Size: 538829152 Hash: CFE61189EC37C291360CC26A94DBA9D8 Accuracy: -m0
  Conclusion: CDDA 100%
  Signature: 5AE7180E050FC86B725917ACCA814603EBA06A85

CD3:


Трек лист:
01. Hardwell & Dyro feat. Bright Lights - Never Say Goodbye
02. Tie"sto feat. BT - Love Comes Again (Blasterjaxx Remix)
03. W&W - Thunder
04. Jochen Miller feat. Dog. - We Have Tonight
05. Lovetone & Turismo - Soho Wins
06. Project 46 - Feel The Fire
07. Heatbeat & Chris Schweizer - Nasty
08. Cosmic Gate - So Get Up
09. Vicetone feat. Daniel Gidlund - Chasing Time (Radio Edit)
10. Mat Zo feat. Chuck D - Pyramid Shceme (Club Mix)
Продолжительность: 00:59:14

Отчёт ЕАС:

Exact Audio Copy V1.0 beta 3 from 29. August 2011
EAC extraction logfile from 29. June 2014, 20:01
Various / Top DJ 100 Volume 7 (CD3)
Used drive  : MAD DOG MD-16XDVD9A2   Adapter: 0  ID: 1
Read mode               : Secure
Utilize accurate stream : Yes
Defeat audio cache      : Yes
Make use of C2 pointers : No
Read offset correction                      : 48
Overread into Lead-In and Lead-Out          : No
Fill up missing offset samples with silence : Yes
Delete leading and trailing silent blocks   : No
Null samples used in CRC calculations       : Yes
Used interface                              : Native Win32 interface for Win NT & 2000
Used output format              : User Defined Encoder
Selected bitrate                : 768 kBit/s
Quality                         : High
Add ID3 tag                     : No
Command line compressor         : C:\Program Files\Exact Audio Copy\Flac\flac.exe
Additional command line options :  -8 -V -T "TITLE=%title%" -T "ARTIST=%artist%" -T "ALBUMARTIST=%albumartist%" -T "ALBUM=%albumtitle%" -T "DATE=%year%" -T "TRACKNUMBER=%tracknr%" -T "TRACKTOTAL=%numtracks%" -T "GENRE=%genre%" -T "COMMENT=%comment%" -T "PERFORMER=%albuminterpret%" -T "COMPOSER=%composer%" %source% -o %dest%
TOC of the extracted CD
     Track |   Start  |  Length  | Start sector | End sector
    ---------------------------------------------------------
        1  |  0:00.00 |  4:03.51 |         0    |    18275
        2  |  4:03.51 |  6:22.46 |     18276    |    46971
        3  | 10:26.22 |  4:58.09 |     46972    |    69330
        4  | 15:24.31 |  5:51.04 |     69331    |    95659
        5  | 21:15.35 |  5:56.18 |     95660    |   122377
        6  | 27:11.53 |  6:30.26 |    122378    |   151653
        7  | 33:42.04 |  6:05.39 |    151654    |   179067
        8  | 39:47.43 |  6:42.06 |    179068    |   209223
        9  | 46:29.49 |  5:53.26 |    209224    |   235724
       10  | 52:23.00 |  6:51.15 |    235725    |   266564
Range status and errors
Selected range
     Filename F:\NNM\VA - DJ TOP 100 vol.7 (2013)\CD3\Various - Top DJ 100 Volume 7 (CD3).wav
     Peak level 100.0 %
     Extraction speed 2.0 X
     Range quality 100.0 %
     Test CRC D7C770D0
     Copy CRC D7C770D0
     Copy OK
No errors occurred
End of status report
---- CUETools DB Plugin V2.1.3
[CTDB TOCID: 3rAQhmGjzYepj6WDrUv75MQKD2o-] disk not present in database, Submit result: unrecognized or virtual drive
==== Log checksum A4A2885AE380C38A3D7FB5152D9F13193DCAE325F805033F04F6A3A1EECC59D2 ====

Отчёт auCDtect Task manager:

-----------------------
DON'T MODIFY THIS FILE
-----------------------
PERFORMER: auCDtect Task Manager, ver. 1.5.1RC6 build 1.5.1.7
Copyright (c) 2008-2010 y-soft. All rights reserved
http://y-soft.org
ANALYZER: auCDtect: CD records authenticity detector, version 0.8.2
Copyright (c) 2004 Oleg Berngardt. All rights reserved.
Copyright (c) 2004 Alexander Djourik. All rights reserved.
FILE: Various - Top DJ 100 Volume 7 (CD3).flac
  Size: 462561365 Hash: 4A0D91843A58DC6855457F5A14544872 Accuracy: -m0
  Conclusion: CDDA 100%
  Signature: 8405C9530E270F02F8659E3252407802D438E3B2

CD4:


Трек лист:
01. Dash Berlin & Alexander Popov feat. Jonathan Mendelsohn - Steal You Away (Giuseppe Ottaviani Remix)
02. Christian Burns & Paul van Dyk - We Are Tonight (Club Mix)
03. Bobina & Ana Criado - For Who I Am (Beat Service Remix)
04. Loverush UK feat. Brayan Adams - Tonight In Babylon (Andy Duguid Remix)
05. Omnia - Immersion
06. Tenishia - Jaguar
07. Matt Darey feat. Kate Louise Smith - See The Sun (Moonbeam Remix)
08. Myon & Shane 54 with Amy Pearson - Hurricane (Myon & Shane 54 In Search Of Sunrise Extended Mix)
09. Roger Shah, JES & Brian Laruso - Higher Than The Sun (Aly & Fila Remix)
10. Giuseppe Ottaviani feat. Seri - Gave Me (Ronski Speed Remix)
Продолжительность: 01:08:55

Отчёт ЕАС:

Exact Audio Copy V1.0 beta 3 from 29. August 2011
EAC extraction logfile from 29. June 2014, 20:57
Various / Top DJ 100 Volume 7 (CD4)
Used drive  : MAD DOG MD-16XDVD9A2   Adapter: 0  ID: 1
Read mode               : Secure
Utilize accurate stream : Yes
Defeat audio cache      : Yes
Make use of C2 pointers : No
Read offset correction                      : 48
Overread into Lead-In and Lead-Out          : No
Fill up missing offset samples with silence : Yes
Delete leading and trailing silent blocks   : No
Null samples used in CRC calculations       : Yes
Used interface                              : Native Win32 interface for Win NT & 2000
Used output format              : User Defined Encoder
Selected bitrate                : 768 kBit/s
Quality                         : High
Add ID3 tag                     : No
Command line compressor         : C:\Program Files\Exact Audio Copy\Flac\flac.exe
Additional command line options :  -8 -V -T "TITLE=%title%" -T "ARTIST=%artist%" -T "ALBUMARTIST=%albumartist%" -T "ALBUM=%albumtitle%" -T "DATE=%year%" -T "TRACKNUMBER=%tracknr%" -T "TRACKTOTAL=%numtracks%" -T "GENRE=%genre%" -T "COMMENT=%comment%" -T "PERFORMER=%albuminterpret%" -T "COMPOSER=%composer%" %source% -o %dest%
TOC of the extracted CD
     Track |   Start  |  Length  | Start sector | End sector
    ---------------------------------------------------------
        1  |  0:00.00 |  6:30.34 |         0    |    29283
        2  |  6:30.34 |  8:49.07 |     29284    |    68965
        3  | 15:19.41 |  4:02.00 |     68966    |    87115
        4  | 19:21.41 |  6:47.26 |     87116    |   117666
        5  | 26:08.67 |  6:12.09 |    117667    |   145575
        6  | 32:21.01 |  6:21.12 |    145576    |   174162
        7  | 38:42.13 |  7:31.54 |    174163    |   208041
        8  | 46:13.67 |  8:35.46 |    208042    |   246712
        9  | 54:49.38 |  7:09.27 |    246713    |   278914
       10  | 61:58.65 |  6:56.57 |    278915    |   310171
Range status and errors
Selected range
     Filename F:\NNM\VA - DJ TOP 100 vol.7 (2013)\CD4\Various - Top DJ 100 Volume 7 (CD4).wav
     Peak level 100.0 %
     Extraction speed 4.7 X
     Range quality 99.9 %
     Test CRC 6B4B9F8D
     Copy CRC 6B4B9F8D
     Copy OK
No errors occurred
End of status report
---- CUETools DB Plugin V2.1.3
[CTDB TOCID: q7.1q.aVnp4QrquJIQtaRiNdEdk-] disk not present in database, Submit result: unrecognized or virtual drive
==== Log checksum 9631C7A8C717AD8D07793AEE47F16818CF8A3C09818F610591F8C19EF510CD84 ====

Отчёт auCDtect Task manager:

-----------------------
DON'T MODIFY THIS FILE
-----------------------
PERFORMER: auCDtect Task Manager, ver. 1.5.1RC6 build 1.5.1.7
Copyright (c) 2008-2010 y-soft. All rights reserved
http://y-soft.org
ANALYZER: auCDtect: CD records authenticity detector, version 0.8.2
Copyright (c) 2004 Oleg Berngardt. All rights reserved.
Copyright (c) 2004 Alexander Djourik. All rights reserved.
FILE: Various - Top DJ 100 Volume 7 (CD4).flac
  Size: 542903579 Hash: BFF23C0BE1F5CAEF27076BA689805FF3 Accuracy: -m0
  Conclusion: CDDA 100%
  Signature: 96BFB2624172CE2E76EA53979BA174D176746962
Яндекс.Метрика
Рейтинг@Mail.ru