[ Сегодня на трекере фрилич! Идет свободное скачивание без начисления Download ]

(Funeral Doom/Black Metal) [CD] Wither - Necropolis - 2012, FLAC (image+.cue), lossless

 

Создавать темы 30-Июн-2014 21:02

Wither - Necropolis-
Жанр: Funeral Doom/Black Metal
Носитель: CD
Страна-производитель диска: Australia
Год издания: 2012
Издатель (лейбл): Aurora Australis Records
Номер по каталогу: AAR 008
Страна: Australia
Аудиокодек: FLAC (*.flac)
Тип рипа: image+.cue
Битрейт аудио: lossless
Продолжительность: 00:42:52
Источник (релизер): Atreyu
Наличие сканов в содержимом раздачи: да
Треклист:
01. Sonar Sphere (07:28)
02. Chromatic (05:17)
03. Lament (06:40)
04. Cosmos (07:13)
05. Damange & Loss (01:03)
06. Seeming (04:53)
07. Lost (02:31)
08. Transpression (07:44)

Лог создания рипа

Exact Audio Copy V1.0 beta 3 from 29. August 2011
Отчёт EAC об извлечении, выполненном 23. ноября 2012, 22:54
Wither / Necropolis
Дисковод: HL-DT-STDVDRAM GH22NS70 Adapter: 3 ID: 1
Режим чтения : ДостоверностьИспользование точного потока : ДаОтключение кэша аудио : ДаИспользование указателей C2 : Нет
Коррекция смещения при чтении : 667Способность читать области Lead-in и Lead-out : НетЗаполнение пропущенных сэмплов тишиной : ДаУдаление блоков с тишиной в начале и конце : НетПри вычислениях CRC использовались нулевые сэмплы : ДаИнтерфейс : Установленный внешний ASPI-интерфейс
Выходной формат : Пользовательский кодировщикВыбранный битрейт : 128 kBit/sКачество : ВысокийДобавление ID3-тега : НетУтилита сжатия : C:\Program Files (x86)\Exact Audio Copy\Flac\flac.exeДополнительные параметры : -V -8 -T "Date=%year%" -T "Genre=%genre%" %source%
TOC извлечённого CD
Трек | Старт | Длительность | Начальный сектор | Конечный сектор --------------------------------------------------------------------- 1 | 0:00.00 | 7:28.43 | 0 | 33642 2 | 7:28.43 | 5:17.66 | 33643 | 57483 3 | 12:46.34 | 6:40.18 | 57484 | 87501 4 | 19:26.52 | 7:13.13 | 87502 | 119989 5 | 26:39.65 | 1:03.12 | 119990 | 124726 6 | 27:43.02 | 4:53.18 | 124727 | 146719 7 | 32:36.20 | 2:31.70 | 146720 | 158114 8 | 35:08.15 | 7:44.52 | 158115 | 192966
Характеристики диапазона извлечения и сообщения об ошибках
Выбранный диапазон
Имя файла D:\Darkabyss.org\Atreyu\Wither - Necropolis\Wither - Necropolis.wav
Пиковый уровень 91.5 % Скорость извлечения 1.7 X Качество диапазона 100.0 % CRC теста 7D152AE7 CRC копии 7D152AE7 Копирование... OK
Ошибок не произошло
AccurateRip: сводка
Трек 1 отсутствует в базе данныхТрек 2 отсутствует в базе данныхТрек 3 отсутствует в базе данныхТрек 4 отсутствует в базе данныхТрек 5 отсутствует в базе данныхТрек 6 отсутствует в базе данныхТрек 7 отсутствует в базе данныхТрек 8 отсутствует в базе данных
Ни одного трека нет в базе AccurateRip
Конец отчёта
---- CUETools DB Plugin V2.1.4
[CTDB TOCID: FoAVNUGrJvM1LtOmwEV5h6mjflo-] disk not present in databaseSubmit result: FoAVNUGrJvM1LtOmwEV5h6mjflo- has been uploaded
==== Контрольная сумма отчёта 721C3C99D87F19EAE4B68105D9C2B74FA3ADA8788F116959CFB9837D518658FE ====

Содержание индексной карты (.CUE)

REM GENRE "Funeral Doom/Black Metal"REM DATE 2012REM DISCID 650A0C08REM COMMENT "ExactAudioCopy v1.0b3"PERFORMER "Wither"TITLE "Necropolis"FILE "Wither - Necropolis.flac" WAVE TRACK 01 AUDIO TITLE "Sonar Sphere" PERFORMER "Wither" INDEX 01 00:00:00 TRACK 02 AUDIO TITLE "Chromatic" PERFORMER "Wither" INDEX 01 07:28:43 TRACK 03 AUDIO TITLE "Lament" PERFORMER "Wither" INDEX 01 12:46:34 TRACK 04 AUDIO TITLE "Damange & Loss" PERFORMER "Wither" INDEX 00 19:26:51 INDEX 01 19:26:52 TRACK 05 AUDIO TITLE "Cosmos" PERFORMER "Wither" INDEX 01 26:39:65 TRACK 06 AUDIO TITLE "Seeming" PERFORMER "Wither" INDEX 01 27:43:02 TRACK 07 AUDIO TITLE "Lost" PERFORMER "Wither" INDEX 01 32:36:20 TRACK 08 AUDIO TITLE "Transpression" PERFORMER "Wither" INDEX 01 35:08:15
-

auCDtect

-----------------------
DON'T MODIFY THIS FILE
-----------------------
PERFORMER: auCDtect Task Manager, ver. 1.6.0 RC1 build 1.6.0.1
Copyright (c) 2008-2010 y-soft. All rights reserved
http://y-soft.org
ANALYZER: auCDtect: CD records authenticity detector, version 0.8.2
Copyright (c) 2004 Oleg Berngardt. All rights reserved.
Copyright (c) 2004 Alexander Djourik. All rights reserved.
FILE: Wither - Necropolis.flac
Size: 253222770 Hash: 64B0515654D75ECBDAEF24B2C7A44C6D Accuracy: -m0
Conclusion: CDDA 99%
Signature: 5B758759E6A628EBBFEF0088987FB96E3CB02146

TT Dynamic Range Meter

foobar2000 1.1.10 / Dynamic Range Meter 1.1.1
log date: 2014-06-30 09:19:58
--------------------------------------------------------------------------------
Analyzed: Wither / Necropolis
--------------------------------------------------------------------------------
DR Peak RMS Duration Track
--------------------------------------------------------------------------------
DR11 -0.78 dB -13.98 dB 7:29 01-Sonar Sphere
DR9 -0.77 dB -10.86 dB 5:18 02-Chromatic
DR11 -0.80 dB -14.26 dB 6:40 03-Lament
DR10 -0.80 dB -12.22 dB 7:13 04-Damange & Loss
DR11 -4.58 dB -18.64 dB 1:03 05-Cosmos
DR8 -0.98 dB -10.96 dB 4:53 06-Seeming
DR10 -3.31 dB -14.26 dB 2:32 07-Lost
DR11 -0.80 dB -13.56 dB 7:45 08-Transpression
--------------------------------------------------------------------------------
Number of tracks: 8
Official DR value: DR10
Samplerate: 44100 Hz
Channels: 2
Bits per sample: 16
Bitrate: 787 kbps
Codec: FLAC
================================================================================

Яндекс.Метрика
Рейтинг@Mail.ru