Старшеклассники (Ядвига Закржевская)(2008,Молодёжный, драма, мелодрама, комедия, семейный) SATRip [Сезон 3, серии 01-60 из 60]

 

Создавать темы 30-Июн-2014 18:33

-Старшеклассники (2008) SATRip [Сезон 3, серии 01-60 из 60]- Год выпуска: 2008
Жанр: Молодёжный, драма, мелодрама, комедия, семейный
Режиссер: Ядвига Закржевская
Актеры: Григорий Адаменко, Михаил Быстров, Светлана Жигуленко, Валерия Варченко, Виктория Селиверстова, Юлия Ерусова, Вадим Козлов, Наталья Бахматова, Валентина Егоренкова, Юлия Кудояр, Максим Демченко, Алексей Симонов, Григорий Татаренко, Павел Татаренко, Олег Леваков, Андрей Пынзару, Алексей Щуров и др.
Описание фильма:
Итак, знакомьтесь с новыми старшеклассниками: Марина Левицкая, Андрей Сотник, Игорь Чернов, Олеся Леонтьева. Что же касается нынешних героев, то и они продолжают свою жизнь в этом сезоне. В ней все так же славно директорствует Борис Максимович Привалов, или — Борман, все так же борется с учащимися биологичка Зоя Захаровна Мухина, или — Муха ЗЗ. Место секретарши по-прежнему занимает Лена Березкина. Охраняют покой и учебный процесс Антон Заров и Александр Заботин. Место Чижа в телестудии осваивает Катя Воронина, известная всем под именем Ворона, а сам Чижов теперь трудится на благо родной школы в качестве завхоза. Лиза продолжает учить уму разуму малышей в классе продленного дня, а братья Вячеслав и Ярослав Приходько — кормить учащихся вкусными завтраками и общаться с представительницами прекрасного пола.

Продолжительность: ~ 00:26:00 серия
Качество видео: SATRip
Видеокодек: XviD
Битрейт видео: ~1200 Кбит/с
Размер кадра: 704x416 (1.692:1)
Аудиокодек: MP3 2.0
Битрейт аудио: 128 Кбит/с

Список серий

01. Новенькие
02. Подозрительное лицо
03. Часы
04. Вечеринка у Олеси
05. Первое сентября
06. Трудовая повинность
07. Кража
08. Запретная зона
09. Подозреваемый
10. Презумпция невиновности
11. Чувство справедливости
12. Важные улики
13. Прогульщики
14. Директриса
15. День самоуправления
16. Конверт
17. Мат в два хода
18. Месть
19. Наказание без преступления
20. Шахматный романс
21. Конец связи
22. Школьные страсти
23. Последний шанс
24. Полный прием
25. Муки совести
26. Конфликты
27. Последствия отравления
28. Непостоянный ребенок
29. Личный дневник
30. Привет из 1968 года
31. Тени прошлого
32. Каждому свое
33. Опасные гастроли
34. Финансовый кризис
35. Скользкая дорожка
36. Сердечный приступ
37. Покатались
38. Sorry, детка
39. Следствие по делу
40. Без вины виноватый
41. Смелое предложение
42. Случайное знакомство
43. Тайный поклонник
44. Творческий вечер
45. Любовь и надежда
46. Эксклюзивное видео
47. Голая правда
48. Расплата за любовь
49. Дядя Серёжа
50. Туман в голове
51. План Чижа
52. Узник
53. Постановка по Лермонтову
54. Литературные страдания
55. Сцена, которой нет в романе
56. Герои нашего времени
57. Боль
58. Раскаяние
59. С Новым Годом!
60. Финал

MediaInfo

General
Complete name : Sklass_3_001_SATRip.avi
Format : AVI
Format/Info : Audio Video Interleave
File size : 250 MiB
Duration : 26mn 19s
Overall bit rate : 1 329 Kbps
Writing application : MEncoder 1.0rc2-4.2.1
Writing library : MPlayer
Video
ID : 0
Format : MPEG-4 Visual
Format profile : Advanced [email protected]
Format settings, BVOP : 2
Format settings, QPel : No
Format settings, GMC : No warppoints
Format settings, Matrix : Default (MPEG)
Codec ID : XVID
Codec ID/Hint : XviD
Duration : 26mn 19s
Bit rate : 1 188 Kbps
Width : 704 pixels
Height : 416 pixels
Display aspect ratio : 1.692
Frame rate : 25.000 fps
Color space : YUV
Chroma subsampling : 4:2:0
Bit depth : 8 bits
Scan type : Progressive
Compression mode : Lossy
Bits/(Pixel*Frame) : 0.162
Stream size : 224 MiB (89%)
Writing library : XviD 1.1.2 (UTC 2006-11-01)
Audio
ID : 1
Format : MPEG Audio
Format version : Version 1
Format profile : Layer 3
Mode : Joint stereo
Mode extension : MS Stereo
Codec ID : 55
Codec ID/Hint : MP3
Duration : 26mn 19s
Bit rate mode : Constant
Bit rate : 128 Kbps
Channel(s) : 2 channels
Sampling rate : 48.0 KHz
Compression mode : Lossy
Delay relative to video : 40ms
Stream size : 24.1 MiB (10%)
Alignment : Aligned on interleaves
Interleave, duration : 24 ms (0.60 video frame)
Interleave, preload duration : 504 ms
Скриншоты:
Яндекс.Метрика
Рейтинг@Mail.ru