[ Сегодня на трекере фрилич! Идет свободное скачивание без начисления Download ]

Арчер / Спецагент Арчер / Archer (Сезон 5 / серии: 12 из 13) (Адам Рид / Adam Reed ...) [2014г., мультфильм, боевик, комедия, ..., WEB-DLRip] MVO (NewStudio) + Original (Eng) [обновляемая]

 

Создавать темы 30-Июн-2014 16:08

Арчер / Спецагент Арчер / Archer
«Counterintelligence»
- Русское название: Арчер / Спецагент Арчер
Оригинальное название: Archer
Страна: США
Год выпуска: 2014
Жанр: мультфильм, боевик, комедия, ...-Озвучка: Студия NewStudio
Перевод: Многоголосый закадровый, профессиональный
Оригинальный аудиопоток: английский-Автор перевода: Opel
Озвучка: Руслан Габидуллин, Константин Погодаев, Ольга Кравцова, Анна Тух (Кубик в кубе & Бяко Рекордс)
Постер: Vortex-Премьера (мир): 17 сентября 2009, ...-Режиссер: Адам Рид / Adam Reed, Брайан Фордни / Bryan Fordney
В главных ролях: Х. Джон Бенжамин, Джуди Грир, Эмбер Нэш, Крис Парнелл, Аиша Тайлер, Джессика Уолтер, Адам Рид ...-Описание фильма:
В международном шпионском агенстве ISIS любой мировой кризис — лишь предлог для высококлассных секретных агентов посоревноваться между собой в обмане и предательстве. Главным героем мультсериала является спецагент Стерлинг Арчер, известный также под кодовым именем «Герцогиня». На службе Арчеру приходится мириться со своей эксцентричной мамашей/начальницей — Мэлори, бывшей подружкой Ланой, озабоченной секретаршей Шерил и другими «интересными личностями».-Сезон: 5
Серии: 12 из 13 серий
Продолжительность: ~ 00:45:00 мин серия-Качество видео: WEB-DLRip
Формат: AVI
Видеокодек: XviD
Аудиокодек: Mp3
Видео: MPEG-4 Visual at 1817 Кбит/сек: 720 x 400 (1.800) at 23.976 fps, 0.263 Бит/Пиксели
Аудио Rus: MPEG Audio at 128 Кбит/сек, 2 канала, 48,0 КГц |NewStudio|
Аудио Eng: MPEG Audio at 128 Кбит/сек: 2 канала, 48,0 КГц |Original|
- -

Список серий:

  • Белый слон (White Elephant)
  • Поцелуй во время смерти (A Kiss While Dying)
  • Долг чести (A Debt of Honor)
  • Вызов на дом (House Call)
  • На Юг и Вниз (Southbound and Down)
  • Детский душ (Baby Shower)
  • Блюз Контрабандистов (Smugglers Blues)
  • Правила добычи (The Rules of Extraction)
  • На Ковре (On the Carpet)
  • Дворцовые Интриги: Часть 1 (Palace Intrigue: Part 1)
  • Дворцовые Интриги: Часть 2 (Palace Intrigue: Part 2)
  • Флибустьер (Filibuster)
-

MediaInfo:

Общее
Полное имя                               : E:\_Сериалы\111\Арчер\Archer-5(NewStudio)\archer.s05e01.webdl_NewStudio.TV.avi
Формат                                   : AVI
Формат/Информация                        : Audio Video Interleave
Размер файла                             : 300 Мбайт
Продолжительность                        : 20 м.
Общий поток                              : 2087 Кбит/сек
Программа кодирования                    : VirtualDubMod 1.5.10.2 (build 2540/release)
Библиотека кодирования                   : VirtualDubMod build 2540/release
Видео
Идентификатор                            : 0
Формат                                   : MPEG-4 Visual
Профиль формата                          : Advanced [email protected]
Параметр BVOP формата                    : Нет
Параметр QPel формата                    : Нет
Параметр GMC формата                     : Без точки перехода
Параметр матрицы формата                 : Default (H.263)
Идентификатор кодека                     : XVID
Идентификатор кодека/Подсказка           : XviD
Продолжительность                        : 20 м.
Битрейт                                  : 1817 Кбит/сек
Ширина                                   : 720 пикселей
Высота                                   : 400 пикселей
Соотношение сторон                       : 16:9
Частота кадров                           : 23,976 кадра/сек
Цветовое пространство                    : YUV
Субдискретизация насыщенности            : 4:2:0
Битовая глубина                          : 8 бит
Тип развёртки                            : Прогрессивная
Метод сжатия                             : С потерями
Бит/(Пиксели*Кадры)                      : 0.263
Размер потока                            : 261 Мбайт (87%)
Библиотека кодирования                   : XviD 1.2.1 (UTC 2008-12-04)
Аудио #1
Идентификатор                            : 1
Формат                                   : MPEG Audio
Версия формата                           : Version 1
Профиль формата                          : Layer 3
Режим                                    : Joint stereo
Расширение режима                        : MS Stereo
Идентификатор кодека                     : 55
Идентификатор кодека/Подсказка           : MP3
Продолжительность                        : 20 м.
Вид битрейта                             : Постоянный
Битрейт                                  : 128 Кбит/сек
Каналы                                   : 2 канала
Частота                                  : 48,0 КГц
Метод сжатия                             : С потерями
Размер потока                            : 18,4 Мбайт (6%)
Выравнивание                             : Соединение по промежуткам
Продолжительность промежутка             : 42  мс. (1,00 видеокадр)
Время предзагрузки промежутка            : 504  мс.
Аудио #2
Идентификатор                            : 2
Формат                                   : MPEG Audio
Версия формата                           : Version 1
Профиль формата                          : Layer 3
Режим                                    : Joint stereo
Расширение режима                        : MS Stereo
Идентификатор кодека                     : 55
Идентификатор кодека/Подсказка           : MP3
Продолжительность                        : 20 м.
Вид битрейта                             : Постоянный
Битрейт                                  : 128 Кбит/сек
Каналы                                   : 2 канала
Частота                                  : 48,0 КГц
Метод сжатия                             : С потерями
Размер потока                            : 18,4 Мбайт (6%)
Выравнивание                             : Соединение по промежуткам
Продолжительность промежутка             : 42  мс. (1,00 видеокадр)
Время предзагрузки промежутка            : 504  мс.
-

Скриншот c названием фильма

-Скриншоты:
-

Внимание! Раздача ведётся путём добавления новых серий!

Внимание! Раздача ведётся путём добавления новых серий; при каждом добавлении создётся новый торрент. Чтобы начать докачку новой серии, пользователям необходимо сделать следующее:
(1) остановить скачивание,
(2) удалить старый торрент у себя из клиента (старые серии удалять не надо),
(3) скачать новый торрент и запустить его у себя в клиенте вместо старого, при этом указать клиенту путь в старую папку куда и должно происходить скачивание новых серий.
Ваш клиент при этом должен произвести хеширование (проверку) старой папки (если не производит сам - помогите ему сделать это), и будет докачивать только те серии которых у вас ещё нет. Старые серии при этом не удаляются, а продолжают раздаваться!
Eсли вы уже удалили старые серии, то предотвратить повторную закачку старых серий можно, отжав галочку в соответсвующих местах при запуске нового торрента.
-Добавлена двенадцатая серия пятого сезона
Яндекс.Метрика
Рейтинг@Mail.ru