[ Сегодня на трекере фрилич! Идет свободное скачивание без начисления Download ]

Астрал: Глава 2 / Insidious: Chapter 2 (2013) HDRip [Звук с CamRip]

 

Создавать темы 30-Июн-2014 15:51

Астрал: Глава 2 / Insidious: Chapter 2 (2013) HDRip«Он вернулся за тобой»- Год выпуска: 2013
Производство: США | Blumhouse Productions, Entertainment One, FilmDistrict
Жанр: Ужасы, Триллер
Перевод: Дублированный (звук с CamRip)
Субтитры: Отсутствуют
Дата мировой премьеры: 13 сентября 2013
Дата российской премьеры: 3 октября 2013, «WDSSPR»
Дата украинской премьеры: 14 ноября 2013, «B&H Film Distribution Company»
Дата выхода DVD / Blu-Ray релиза: 21 января 2014, «Columbia/Sony»
Режиссер: Джеймс Ван
Продюсер: Джейсон Блум, Орен Пели, Жанетт Брилл
Актеры: Патрик Уилсон, Роуз Бирн, Лин Шэй, Тай Симпкинс, Барбара Херши, Стив Култер, Ли Уоннелл, Энгус Сэмпсон, Эндрю Эстор, Хэнк Харрис
Описание фильма:
Продолжение мистического хоррора «Астрал». Семья Ламберт, стремится раскрыть тайну, из-за которой они оказались в опасной связи с миром духов. Семейство переезжает в новый дом, который принадлежит матери Джоша, но, как оказывается, туда вселяются не только они. Путешествие в мир призраков не прошло для семьи Ламберт бесследно — вместе с Джошем в мир людей проник дух, который вновь хочет быть живым. И вскоре в доме снова начинают происходить странные и страшные вещи.

Продолжительность: 01:45:52
Качество видео: HDRip
Видеокодек: Xvid
Битрейт видео: ~1710 Kbit/s
Размер кадра: 720 x 304
Аудиокодек: MP3, 2.0
Битрейт аудио: 128 Kbit/s

MediaInfo

Общее
Полное имя : D:\Торренты\Астрал Глава 2 .2013.HDRip.avi
Формат : AVI
Формат/Информация : Audio Video Interleave
Размер файла : 1,37 Гбайт
Продолжительность : 1 ч. 45 м.
Общий поток : 1848 Кбит/сек
Программа кодирования : VirtualDubMod 1.5.10.2 (build 2540/release)
Библиотека кодирования : VirtualDubMod build 2540/release
Видео
Идентификатор : 0
Формат : MPEG-4 Visual
Профиль формата : Advanced [email protected]
Параметр BVOP формата : 2
Параметр QPel формата : Нет
Параметр GMC формата : Без точки перехода
Параметр матрицы формата : Выборочная
Идентификатор кодека : XVID
Идентификатор кодека/Подсказка : XviD
Продолжительность : 1 ч. 45 м.
Битрейт : 1710 Кбит/сек
Ширина : 720 пикс.
Высота : 304 пикс.
Соотношение сторон : 2,35:1
Частота кадров : 23,976 кадр/сек
Цветовое пространство : YUV
Подвыборка цветности : 4:2:0
Битовая глубина : 8 бит
Тип развёртки : Прогрессивная
Метод сжатия : С потерями
Бит/(Пиксели*Кадры) : 0.326
Размер потока : 1,26 Гбайт (93%)
Библиотека кодирования : XviD 1.2.1 (UTC 2008-12-04)
Аудио
Идентификатор : 1
Формат : MPEG Audio
Версия формата : Version 1
Профиль формата : Layer 3
Режим : Joint stereo
Расширение режима : MS Stereo
Идентификатор кодека : 55
Идентификатор кодека/Подсказка : MP3
Продолжительность : 1 ч. 45 м.
Вид битрейта : Постоянный
Битрейт : 128 Кбит/сек
Каналы : 2 канала
Частота : 48,0 КГц
Метод сжатия : С потерями
Размер потока : 96,9 Мбайт (7%)
Выравнивание : Соединение по промежуткам
Продолжительность промежутка : 42 мс. (1,00 видеокадр)
Время предзагрузки промежутка : 504 ms
-Скриншоты:-Время раздачи: 24/7 по возможности 
Яндекс.Метрика
Рейтинг@Mail.ru