[ Сегодня на трекере фрилич! Идет свободное скачивание без начисления Download ]

Пентхаус с видом на север / Penthouse North (Джозеф Рубин)(2013,Триллер, Драма, Детектив) BDRip [720p] [Line]

 

Создавать темы 30-Июн-2014 15:40

-Пентхаус с видом на север / Penthouse North (2013) BDRip- Год выпуска: 2013
Производство: США | Demarest Films, Kilburn Media, Lionsgate Productions
Жанр: Триллер, Драма, Детектив
Перевод: Дублированный (чистый звук)
Автор перевода: студия "Пифагор"
Язык субтитров: Английский (Full, SDH)
Вид субтитров: Вшитые отключаемые
Описание фильма:
После трагического происшествия девушка-фотокорреспондент слепнет. Злая на весь мир, она отгораживается от внешнего мира, закрывшись в нью-йоркском пентхаусе. Её единственная отрада — молодой человек, который хоть как-то помогает ей не пасть духом. И вот однажды в квартиру врывается преступник-садист, ищущий спрятанные ценности. Героине приходится преодолевать боль и страх перед внешним миром, чтобы выжить…
Режиссер: Джозеф Рубин
Продюсер: Майкл Бэйкер, Дэвид Локери, Роберт Мензес
Актеры: Мишель Монахэн, Майкл Китон, Бэрри Слоун, Эндрю В. Уолкер, Каньехтио Хорн, Тревор Хэйес, Филлип Джарретт, Тимоти Пол Кодерр, Оливье Супернант, Жасмин Чан
Дата мировой премьеры: 18 апреля 2013 (Таиланд)
Дата российской премьеры: 23 мая 2013, «West»

Продолжительность: 01:25:37
Качество видео: BDRip 720p [HDWinG]
Видеокодек: MPEG-4 AVC/H.264
Битрейт видео: ~ 4007 Кбит/сек
Размер кадра: 1280 x 694 (1.85) at 23.976 fps : 0.188 Bits/Pixel
Аудио #1: AC3 256 Кбит/сек (2ch), 48,0 КГц, 16 бит [Русский, Дубляж]
Аудио #2: DTS 1509 Кбит/сек (6ch), 48,0 КГц, 24 бит [Английский]
Дополнительно: Сохранены оригинальные чаптеры как на Blu-ray
Релиз:

MediaInfo:

Уникальный идентификатор                 : 199603554026032849315698633703939165691 (0x962A3F05076734A2BC57BEBD7014CDFB)
Полное имя                               : F:\Penthouse.North.2013.D..BDRip.720p.NNM-CLUB.mkv
Формат                                   : Matroska
Версия формата                           : Version 2
Размер файла                             : 3,52 Гбайт
Продолжительность                        : 1 ч. 25 м.
Общий поток                              : 5889 Кбит/сек
Название фильма                          : Penthouse.North.2013.720p.BluRay.x264.DTS-HDWinG
Дата кодирования                         : UTC 2014-06-28 09:11:53
Программа кодирования                    : mkvmerge v2.9.9 ('Tutu') built on Nov 25 2009 21:13:32
Библиотека кодирования                   : libebml v0.7.9 + libmatroska v0.8.1
Видео
Идентификатор                            : 1
Формат                                   : AVC
Формат/Информация                        : Advanced Video Codec
Профиль формата                          : [url=mailto:[email protected]][email protected][/url]
Параметр CABAC формата                   : Да
Параметр ReFrames формата                : 9 кадров
Идентификатор кодека                     : V_MPEG4/ISO/AVC
Продолжительность                        : 1 ч. 25 м.
Битрейт                                  : 4007 Кбит/сек
Ширина                                   : 1280 пикселей
Высота                                   : 694 пикселя
Соотношение сторон                       : 1,85:1
Режим частоты кадров                     : Постоянный
Частота кадров                           : 23,976 кадра/сек
Цветовое пространство                    : YUV
Субдискретизация насыщенности            : 4:2:0
Битовая глубина                          : 8 бит
Тип развёртки                            : Прогрессивная
Бит/(Пиксели*Кадры)                      : 0.188
Размер потока                            : 2,40 Гбайт (68%)
Заголовок                                : -=Release for NNM-CLUB.RU=-
Библиотека кодирования                   : x264 core 132 r2323+704+51 d571b1c tMod [[email protected]:2:0 X86_64]
Настройки программы                      : cabac=1 / ref=9 / deblock=1:-3:-3 / analyse=0x3:0x113 / me=umh / subme=11 / psy=1 / fade_compensate=0.00 / psy_rd=1.05:0.00 / mixed_ref=1 / me_range=32 / chroma_me=1 / trellis=2 / 8x8dct=1 / cqm=0 / deadzone=21,11 / fast_pskip=0 / chroma_qp_offset=-2 / threads=36 / lookahead_threads=5 / sliced_threads=0 / nr=0 / decimate=0 / interlaced=0 / bluray_compat=0 / constrained_intra=0 / fgo=0 / bframes=8 / b_pyramid=2 / b_adapt=2 / b_bias=0 / direct=3 / weightb=1 / open_gop=0 / weightp=2 / keyint=240 / keyint_min=24 / scenecut=40 / intra_refresh=0 / rc=crf / mbtree=0 / crf=16.5000 / qcomp=0.70 / qpmin=0 / qpmax=69 / qpstep=4 / ip_ratio=1.20 / pb_ratio=1.20 / aq=4:0.90 / aq-sensitivity=10.00 / aq-factor=1.00:1.00:1.00 / aq2=0 / aq3=0
Язык                                     : English
Default                                  : Нет
Forced                                   : Нет
Аудио #1
Идентификатор                            : 2
Формат                                   : AC-3
Формат/Информация                        : Audio Coding 3
Расширение режима                        : CM (complete main)
Параметр Endianness формата              : Big
Идентификатор кодека                     : A_AC3
Продолжительность                        : 1 ч. 25 м.
Вид битрейта                             : Постоянный
Битрейт                                  : 256 Кбит/сек
Каналы                                   : 2 канала
Расположение каналов                     : Front: L R
Частота                                  : 48,0 КГц
Битовая глубина                          : 16 бит
Метод сжатия                             : С потерями
Размер потока                            : 157 Мбайт (4%)
Заголовок                                : AC3.256.Kbps (2ch) Russian (Дубляж, студия «Пифагор»)
Язык                                     : Russian
Default                                  : Нет
Forced                                   : Нет
Аудио #2
Идентификатор                            : 3
Формат                                   : DTS
Формат/Информация                        : Digital Theater Systems
Режим                                    : 16
Параметр Endianness формата              : Big
Идентификатор кодека                     : A_DTS
Продолжительность                        : 1 ч. 25 м.
Вид битрейта                             : Постоянный
Битрейт                                  : 1509 Кбит/сек
Каналы                                   : 6 каналов
Расположение каналов                     : Front: L C R, Side: L R, LFE
Частота                                  : 48,0 КГц
Битовая глубина                          : 16 бит
Метод сжатия                             : С потерями
Задержка видео                           : 11 мс.
Размер потока                            : 924 Мбайт (26%)
Заголовок                                : DTS.1509.Kbps (6ch) English
Язык                                     : English
Default                                  : Нет
Forced                                   : Нет
Текст #1
Идентификатор                            : 4
Формат                                   : UTF-8
Идентификатор кодека                     : S_TEXT/UTF8
Идентификатор кодека/Информация          : UTF-8 Plain Text
Заголовок                                : English (Full)
Язык                                     : English
Default                                  : Нет
Forced                                   : Нет
Текст #2
Идентификатор                            : 5
Формат                                   : UTF-8
Идентификатор кодека                     : S_TEXT/UTF8
Идентификатор кодека/Информация          : UTF-8 Plain Text
Заголовок                                : English (SDH)
Язык                                     : English
Default                                  : Нет
Forced                                   : Нет
Меню
00:00:00.000                             : en:00:00:00.000
00:04:49.164                             : en:00:04:49.164
00:08:08.697                             : en:00:08:08.697
00:14:05.261                             : en:00:14:05.261
00:21:47.306                             : en:00:21:47.306
00:27:14.466                             : en:00:27:14.466
00:34:58.722                             : en:00:34:58.722
00:40:05.403                             : en:00:40:05.403
00:44:42.763                             : en:00:44:42.763
00:50:32.863                             : en:00:50:32.863
00:54:09.580                             : en:00:54:09.580
01:00:52.315                             : en:01:00:52.315
01:05:06.778                             : en:01:05:06.778
01:11:26.032                             : en:01:11:26.032
01:17:46.787                             : en:01:17:46.787
01:20:06.093                             : en:01:20:06.093

x264 iNFO

x264 [info]: profile High, level 4.1
x264 [info]: frame I:898 Avg QP:13.34 size: 81461
x264 [info]: frame P:27649 Avg QP:14.27 size: 39348
x264 [info]: frame B:94642 Avg QP:15.62 size: 15698
x264 [info]: consecutive B-frames: 2.2% 5.0% 8.8% 21.1% 16.5% 25.1% 7.0% 12.3% 1.9%
Скриншоты:


-
Яндекс.Метрика
Рейтинг@Mail.ru