Провинциалка / Hick (2011) HDRip

 

Создавать темы 30-Июн-2014 12:21

-Провинциалка / Hick (2011) HDRip- Год выпуска: 2011
Производство: США, Lighthouse Entertainment
Жанр: Драма, комедия, экранизация
Режиссер: Дерик Мартини
Актеры: Клои Грэйс Моретц, Блэйк Лайвли, Эдди Редмэйн, Алек Болдуин, Джульетт Льюис, Рори Калкин, Рэй МакКиннон, Энсон Маунт, Шон Сайпос, Дэйв Вескио
Описание фильма:
Тринадцатилетняя девчонка из Небраски, Лули осталась дома одна без родителей. В руки ей попадает отцовский пистолет 45 калибра. Не долго думая, Лули отправляется подальше от постоянных пьяных родительских скандалов в Вегас, захватив с собой пистолет. Перед девочкой открывается мир свободного насилия и жестоких преступлений.
Перевод: Профессиональный многоголосый
Субтитры: Отсутствуют

Продолжительность: 01:37:40
Качество видео: HDRip
Видеокодек: XviD
Битрейт видео: ~1555 Кбит/с
Размер кадра: 720x304
Аудиокодек: AC3 6 ch
Битрейт аудио: 448 Кбит/с

MediaInfo:

Общее
Формат                                   : AVI
Формат/Информация                        : Audio Video Interleave
Размер файла                             : 1,37 Гбайт
Продолжительность                        : 1 ч. 37 м.
Общий поток                              : 2013 Кбит/сек
Программа кодирования                    : VirtualDubMod 1.5.10.2 (build 2540/release)
Библиотека кодирования                   : VirtualDubMod build 2540/release
Видео
Идентификатор                            : 0
Формат                                   : MPEG-4 Visual
Профиль формата                          : Advanced [email protected]
Параметр BVOP формата                    : 2
Параметр QPel формата                    : Нет
Параметр GMC формата                     : Без точки перехода
Параметр матрицы формата                 : Default (H.263)
Идентификатор кодека                     : XVID
Идентификатор кодека/Подсказка           : XviD
Продолжительность                        : 1 ч. 37 м.
Битрейт                                  : 1555 Кбит/сек
Ширина                                   : 720 пикселей
Высота                                   : 304 пикселя
Соотношение сторон                       : 2,35:1
Частота кадров                           : 23,976 кадра/сек
Цветовое пространство                    : YUV
Субдискретизация насыщенности            : 4:2:0
Битовая глубина                          : 8 бит
Тип развёртки                            : Прогрессивная
Метод сжатия                             : С потерями
Бит/(Пиксели*Кадры)                      : 0.296
Размер потока                            : 1,06 Гбайт (77%)
Библиотека кодирования                   : XviD 1.2.1 (UTC 2008-12-04)
Аудио
Идентификатор                            : 1
Формат                                   : AC-3
Формат/Информация                        : Audio Coding 3
Расширение режима                        : CM (complete main)
Идентификатор кодека                     : 2000
Продолжительность                        : 1 ч. 37 м.
Вид битрейта                             : Постоянный
Битрейт                                  : 448 Кбит/сек
Каналы                                   : 6 каналов
Расположение каналов                     : Front: L C R, Side: L R, LFE
Частота                                  : 48,0 КГц
Битовая глубина                          : 16 бит
Метод сжатия                             : С потерями
Размер потока                            : 313 Мбайт (22%)
Выравнивание                             : Разделение по промежуткам
Продолжительность промежутка             : 42  мс. (1,00 видеокадр)
Время предзагрузки промежутка            : 500  мс.

Скриншоты:

Яндекс.Метрика
Рейтинг@Mail.ru