[ Сегодня на трекере фрилич! Идет свободное скачивание без начисления Download ]

Жестокие игры 3 / Cruel Intentions 3 (Скотт Зил) [2004, драма, триллер, эротика, DVDRip] MVO [R5]

 

Создавать темы 30-Июн-2014 11:31

--Жестокие игры 3 / Cruel Intentions 3-«Третий раз - это шарм...»-- Год выхода: 2004
Страна: США
Производство: Newmarket Capital Group LLC, Newmarket Productions, Original Film
Жанр: драма, триллер, эротика
Продолжительность: 01:21:39
Перевод: Профессиональный (многоголосый закадровый)-Режиссёр: Скотт Зил-В ролях: Керр Смит, Кристина Анапау, Натан Уэзерингтон, Мелисса Ивонн Льюис, Натали Рэмси, Том Паркер, Майкл Пембертон, Тара Кэрролл, Чарли Уэбер, Алекс Доннелли, Уильям Грегори Ли, Аарон МакФерсон, Элизабет МакДоналд...-О фильме: Их любовным интригам нет конца… Их коварный план соблазнить и бросить двух доверчивых студенток не увенчался особым успехом, и тогда Джейсон и Патрик — два самых распущенных студента Колледжа Престридж — обратили свой взгляд на «приз», более интригующий и заманчивый — Касси Мертей, женщину холодную и расчетливую, которая приоткрывает им новый мир наслаждения и боли.-- --Качество: DVDRip (Исходник: DVD5 R5)
Формат: AVI
Видео кодек: XviD
Аудио кодек: MP3
Видео: 656x368 (1.78:1), 25.000 fps, XviD MPEG-4, ~1063 kbps avg, 0.176 bit/pixel
Аудио: 48.0 kHz, MPEG Audio Layer 3, 2 ch, ~128.00 kbps avg
Субтитры: нет--

Media Info

Общее
Полное имя : Zhestokie.igri.3.2004.DVDRip.700MB.avi
Формат : AVI
Формат/Информация : Audio Video Interleave
Размер файла : 701 Мбайт
Продолжительность : 1 ч. 21 м.
Общий поток : 1201 Кбит/сек
Название фильма : Жестокие игры 3 / Cruel Intentions 3 (2004) DVDRip
Жанр : Драма, мелодрама, триллер, эротика
Дата записи : 07.04.2014
Программа кодирования : VirtualDubMod 1.5.10.3 (build 2550/release)
Библиотека кодирования : VirtualDubMod build 2550/release
Правообладатель : rip by ivandubskoj
Видео
Идентификатор : 0
Формат : MPEG-4 Visual
Профиль формата : Advanced [email protected]
Параметр BVOP формата : 1
Параметр QPel формата : Нет
Параметр GMC формата : Без точки перехода
Параметр матрицы формата : Default (MPEG)
Идентификатор кодека : XVID
Идентификатор кодека/Подсказка : XviD
Продолжительность : 1 ч. 21 м.
Битрейт : 1063 Кбит/сек
Ширина : 656 пикселей
Высота : 368 пикселей
Соотношение сторон : 16:9
Частота кадров : 25,000 кадров/сек
Цветовое пространство : YUV
Субдискретизация насыщенности : 4:2:0
Битовая глубина : 8 бит
Тип развёртки : Прогрессивная
Метод сжатия : С потерями
Бит/(Пиксели*Кадры) : 0.176
Размер потока : 621 Мбайт (89%)
Библиотека кодирования : XviD 73
Аудио
Идентификатор : 1
Формат : MPEG Audio
Версия формата : Version 1
Профиль формата : Layer 3
Идентификатор кодека : 55
Идентификатор кодека/Подсказка : MP3
Продолжительность : 1 ч. 21 м.
Вид битрейта : Постоянный
Битрейт : 128 Кбит/сек
Каналы : 2 канала
Частота : 48,0 КГц
Метод сжатия : С потерями
Размер потока : 74,7 Мбайт (11%)
Выравнивание : Соединение по промежуткам
Продолжительность промежутка : 40 мс. (1,00 видеокадр)
Время предзагрузки промежутка : 504 мс.
Заголовок : Russian (MVO)
Библиотека кодирования : LAME3.99r
Настройки программы : -m s -V 4 -q 2 -lowpass 17 -b 128 : Russian

Скриншоты

-- --
Яндекс.Метрика
Рейтинг@Mail.ru