Хэллоуин для Евы / Hallows' Eve (Шон МакГарри) [2013, Ужасы, WEB-DLRip]

 

Создавать темы 23-Окт-2013 15:59

-Хэллоуин для Евы / Hallows' Eve (2013) WEB-DLRip- Год выпуска: 2013
Производство: США
Жанр: Ужасы
Перевод: Двуголосый закадровый, любительский
Озвучка / Автор перевода: DeadSno & den904
Субтитры: Отсутствуют
Внимание! Присутствует ненормативная лексика
Дата мировой премьеры: 1 октября 2013
Режиссер: Шон МакГарри
Продюсер: Mary Boregino, Джозеф Хенниган, Рой Корякин
Актеры: Даниэль Харрис, Рэймонд Мамрак, Кортни Бакстер, Эшли С. Уильямс, Тиффани Шепис, Чэнс Майкл Корбитт, Джош Флиттер, Ricky Rude, Джеймс Багнелл, Блейк Бакстер
Описание фильма:
Произошел несчастный очень трагический несчастный случай в котором пострадала малютка Ева. Этот случай на всю жизнь изуродовал бедняжку. Прошло несколько лет. Праздник Хэллоуин. Люди которые были причастны к тому случаю собрались вмести и решили отпраздновать этот праздник. Но никто не знал, что праздник этот принадлежит той маленькой Еве...
Детям до 17 лет обязательно присутствие родителей!

Продолжительность: 01:18:04
Качество видео: WEB-DLRip
Видеокодек: Xvid
Битрейт видео: ~1111 Kbit/s
Размер кадра: 640 x 352
Аудио #1: AC3, 48,0 КHz, 2.0, 192 Kbit/s - Русский
Аудио #2: MP3, 48,0 КHz, 2.0, 128 Kbit/s - Aнглийский

MediaInfo

Общее
Полное имя : D:\Торренты\Хэллоуин для Евы.2013.WEBRip.avi
Формат : AVI
Формат/Информация : Audio Video Interleave
Размер файла : 807 Мбайт
Продолжительность : 1 ч. 18 м.
Общий поток : 1446 Кбит/сек
Программа кодирования : VirtualDubMod 1.5.10.2 (build 2542/release)
Библиотека кодирования : VirtualDubMod build 2542/release
Видео
Идентификатор : 0
Формат : MPEG-4 Visual
Профиль формата : Advanced [email protected]
Параметр BVOP формата : 2
Параметр QPel формата : Нет
Параметр GMC формата : Без точки перехода
Параметр матрицы формата : Default (H.263)
Режим смешивания : Сжатый битовый поток
Идентификатор кодека : XVID
Идентификатор кодека/Подсказка : XviD
Продолжительность : 1 ч. 18 м.
Битрейт : 1111 Кбит/сек
Ширина : 640 пикс.
Высота : 352 пикс.
Соотношение сторон : 16:9
Частота кадров : 23,976 кадр/сек
Цветовое пространство : YUV
Подвыборка цветности : 4:2:0
Битовая глубина : 8 бит
Тип развёртки : Прогрессивная
Метод сжатия : С потерями
Бит/(Пиксели*Кадры) : 0.206
Размер потока : 621 Мбайт (77%)
Библиотека кодирования : XviD 64
Аудио #1
Идентификатор : 1
Формат : AC-3
Формат/Информация : Audio Coding 3
Расширение режима : CM (complete main)
Идентификатор кодека : 2000
Продолжительность : 1 ч. 18 м.
Вид битрейта : Постоянный
Битрейт : 192 Кбит/сек
Каналы : 2 канала
Расположение каналов : Front: L R
Частота : 48,0 КГц
Битовая глубина : 16 бит
Метод сжатия : С потерями
Размер потока : 107 Мбайт (13%)
Выравнивание : Разделение по промежуткам
Продолжительность промежутка : 42 мс. (1,00 видеокадр)
Время предзагрузки промежутка : 500 ms
Аудио #2
Идентификатор : 2
Формат : MPEG Audio
Версия формата : Version 1
Профиль формата : Layer 3
Режим : Joint stereo
Расширение режима : MS Stereo
Идентификатор кодека : 55
Идентификатор кодека/Подсказка : MP3
Продолжительность : 1 ч. 18 м.
Вид битрейта : Постоянный
Битрейт : 128 Кбит/сек
Каналы : 2 канала
Частота : 48,0 КГц
Метод сжатия : С потерями
Размер потока : 71,5 Мбайт (9%)
Выравнивание : Разделение по промежуткам
Продолжительность промежутка : 42 мс. (1,00 видеокадр)
Время предзагрузки промежутка : 500 ms
Библиотека кодирования : LAME3.98

Скриншоты

Время раздачи: 24/7 по возможности

_________________
Подпись отключена за нарушение правил форума

Создавать темы 26-Янв-2016 20:24 (спустя 2 года 3 месяца)

Топик был перенесен из форума Зарубежные Новинки (HD*Rip/LQ, DVDRip) в форум Зарубежные Фильмы (HD*Rip/LQ, DVDRip, SATRip, VHSRip)
T_O_M
Яндекс.Метрика
Рейтинг@Mail.ru