VA - Звуки музыки / The Sound of Music (2010 (1965)) 45th Anniversary Edition [AAC|WEB-DL|256 кб/с]<Soundtrack>

 

Создавать темы 30-Июн-2014 05:28

-VA - Звуки музыки / The Sound of Music (45th Anniversary Edition) (2010 (1965))- Год: 2010 (1965)
Жанр: Soundtrack
Продолжительность: 01:02:12
Кодек: AAC
Битрейт: 256 кб/с
Тип битрейта: VBR
Треклист:
01 - Julie Andrews and Irwin Kostal - Prelude / The Sound of Music
02 - Irwin Kostal, Anna Lee, Portia Nelson, Marni Nixon and Evadne Baker - Overture / Preludium (Dixit Dominus)
03 - Anna Lee, Portia Nelson, Evadne Baker and Marni Nixon - Morning Hymn / Alleluia
04 - Anna Lee, Portia Nelson, Evadne Baker and Marni Nixon - Maria
05 - Julie Andrews - I Have Confidence
06 - Charmian Carr and Dan Truhitte - Sixteen Going on Seventeen
07 - Julie Andrews - My Favorite Things
08 - Julie Andrews, Charmian Carr, Heather Menzies, Nicholas Hammond, Duane Chase, Angela Cartwright, Kym Karath and Debbie Turnern - Do-Re-Mi
09 - Charmian Carr, Heather Menzies, Nicholas Hammond, Duane Chase, Angela Cartwright, Kym Karath and Debbie Turnern - The Sound of Music
10 - Julie Andrews, Charmian Carr, Heather Menzies, Nicholas Hammond, Duane Chase, Angela Cartwright, Kym Karath and Debbie Turnern - The Lonely Goatherd
11 - Charmian Carr and Bill Lee - Edelweiss
12 - Orchestra - Laendler

Продолжение треклиста&#58;

13 - Charmian Carr, Heather Menzies, Nicholas Hammond, Duane Chase, Angela Cartwright, Kym Karath and Debbie Turnern - So Long Farewell
14 - Irwin Kostal - Entr'Acte
15 - Peggy Wood - Climb Ev'ry Mountain
16 - Julie Andrews, Charmian Carr, Heather Menzies, Nicholas Hammond, Duane Chase, Angela Cartwright, Kym Karath and Debbie Turnern - My Favorite Things (Reprise)
17 - Julie Andrews and Bill Lee - Something Good
18 - Organ, Orchestra, Anna Lee, Portia Nelson, Marni Nixon and Evadne Baker - Processional and Maria
19 - Julie Andrews and Charmian Carr - Sixteen Going on Seventeen (Reprise)
20 - Julie Andrews, Bill Lee, Charmian Carr, Heather Menzies, Nicholas Hammond, Duane Chase, Angela Cartwright, Kym Karath and Debbie Turnern - Do-Re-Mi (Reprise)
21 - Julie Andrews, Bill Lee, Chorus, Charmian Carr, Heather Menzies, Nicholas Hammond, Duane Chase, Angela Cartwright, Kym Karath and Debbie Turnern - Edelweiss (Reprise)
22 - Julie Andrews, Bill Lee, Chorus, Charmian Carr, Heather Menzies, Nicholas Hammond, Duane Chase, Angela Cartwright, Kym Karath and Debbie Turnern - So Long Farewell (Reprise)
23 - Chorus and Orchestra - Climb Ev'ry Mountain (Reprise)
24 - Orchestra - Finale
25 - Lea Michele - My Favorite Things

MI

[code]
General
Complete name : D:\Sound\Music\Soundtracks\Sound of Music\VA - The Sound of Music (45th Anniversary Edition) - OST (2010) [AAC]\01 Prelude _ The Sound of Music.m4a
Format : MPEG-4
Format profile : Apple audio with iTunes info
Codec ID : M4A
File size : 6.17 MiB
Duration : 2mn 46s
Overall bit rate mode : Variable
Overall bit rate : 311 Kbps
Album : The Sound Of Music - 45th Anniversary Edition
Album/Sorted by : Sound Of Music - 45th Anniversary Edition
Album/Performer : Various Artists
Part/Position : 1
Part/Total : 1
Track name : Prelude / The Sound of Music
Track name/Position : 1
Track name/Total : 25
Compilation : Yes
Performer : Julie Andrews & Irwin Kostal
Composer : Richard Rodgers
Genre : Soundtrack
ContentType : Music
Recorded date : UTC 2010-11-02 07:00:00
Encoded date : UTC 1989-02-14 01:39:23
Tagged date : UTC 2012-06-01 12:10:18
Copyright : ℗ 2010 Sony Music Entertainment /Originally released 1965. All Rights Reserved by Rodgers And Hammerstein.
Cover : Yes
Rating : None
AppleStoreAccount : [url=mailto:[email protected]][email protected][/url]
AppleStoreCatalogID : 399792683
AlbumTitleID : 254431
cmID : 11554
PlayListID : 399792677
GenreID : 16
AppleStoreCountry : United States
PurchaseDate : 2012-06-01 02:38:18
Vendor : SonyBMG:isrc:USRC16406208
Flavour : 2:256
iTunMOVI : / / / / asset-info / / file-size / 6469064 / flavor / 2:256 / / /
Audio
ID : 1
Format : AAC
Format/Info : Advanced Audio Codec
Format profile : LC
Codec ID : 40
Duration : 2mn 46s
Bit rate mode : Variable
Bit rate : 288 Kbps
Nominal bit rate : 256 Kbps
Maximum bit rate : 439 Kbps
Channel(s) : 2 channels
Channel positions : Front: L R
Sampling rate : 44.1 KHz
Compression mode : Lossy
Stream size : 5.61 MiB (91%)
Language : English
Encoded date : UTC 1989-02-14 01:39:23
Tagged date : UTC 2012-06-01 12:10:18
General
Complete name : D:\Sound\Music\Soundtracks\Sound of Music\VA - The Sound of Music (45th Anniversary Edition) - OST (2010) [AAC]\02 Overture _ Preludium (Dixit Dominus).m4a
Format : MPEG-4
Format profile : Apple audio with iTunes info
Codec ID : M4A
File size : 7.47 MiB
Duration : 3mn 15s
Overall bit rate mode : Variable
Overall bit rate : 321 Kbps
Album : The Sound Of Music - 45th Anniversary Edition
Album/Sorted by : Sound Of Music - 45th Anniversary Edition
Album/Performer : Various Artists
Part/Position : 1
Part/Total : 1
Track name : Overture / Preludium (Dixit Dominus)
Track name/Position : 2
Track name/Total : 25
Compilation : Yes
Performer : Irwin Kostal, Anna Lee, Portia Nelson, Marni Nixon & Evadne Baker
Composer : Richard Rodgers
Genre : Soundtrack
ContentType : Music
Recorded date : UTC 2010-11-02 07:00:00
Encoded date : UTC 2004-07-16 07:27:07
Tagged date : UTC 2012-06-01 12:10:26
Copyright : ℗ 2010 Sony Music Entertainment /Originally released 1965. All Rights Reserved by Rodgers And Hammerstein.
Cover : Yes
Rating : None
AppleStoreAccount : [url=mailto:[email protected]][email protected][/url]
AppleStoreCatalogID : 399792690
AlbumTitleID : 2692783
cmID : 11554
PlayListID : 399792677
GenreID : 16
AppleStoreCountry : United States
PurchaseDate : 2012-06-01 02:38:18
Vendor : SonyBMG:isrc:USRC16406209
Flavour : 2:256
iTunMOVI : / / / / asset-info / / file-size / 7828316 / flavor / 2:256 / / /
Audio
ID : 1
Format : AAC
Format/Info : Advanced Audio Codec
Format profile : LC
Codec ID : 40
Duration : 3mn 15s
Bit rate mode : Variable
Bit rate : 297 Kbps
Nominal bit rate : 256 Kbps
Maximum bit rate : 315 Kbps
Channel(s) : 2 channels
Channel positions : Front: L R
Sampling rate : 44.1 KHz
Compression mode : Lossy
Stream size : 6.90 MiB (92%)
Language : English
Encoded date : UTC 2004-07-16 07:27:07
Tagged date : UTC 2012-06-01 12:10:26
General
Complete name : D:\Sound\Music\Soundtracks\Sound of Music\VA - The Sound of Music (45th Anniversary Edition) - OST (2010) [AAC]\03 Morning Hymn _ Alleluia.m4a
Format : MPEG-4
Format profile : Apple audio with iTunes info
Codec ID : M4A
File size : 4.75 MiB
Duration : 2mn 3s
Overall bit rate mode : Variable
Overall bit rate : 322 Kbps
Album : The Sound Of Music - 45th Anniversary Edition
Album/Sorted by : Sound Of Music - 45th Anniversary Edition
Album/Performer : Various Artists
Part/Position : 1
Part/Total : 1
Track name : Morning Hymn / Alleluia
Track name/Position : 3
Track name/Total : 25
Compilation : Yes
Performer : Anna Lee, Portia Nelson, Evadne Baker & Marni Nixon
Composer : Richard Rodgers
Genre : Soundtrack
ContentType : Music
Recorded date : UTC 2010-11-02 07:00:00
Encoded date : UTC 2027-12-07 06:18:51
Tagged date : UTC 2012-06-01 12:10:16
Copyright : ℗ 2010 Sony Music Entertainment /Originally released 1965. All Rights Reserved by Rodgers And Hammerstein.
Cover : Yes
Rating : None
AppleStoreAccount : [url=mailto:[email protected]][email protected][/url]
AppleStoreCatalogID : 399792749
AlbumTitleID : 89734319
cmID : 11554
PlayListID : 399792677
GenreID : 16
AppleStoreCountry : United States
PurchaseDate : 2012-06-01 02:38:18
Vendor : SonyBMG:isrc:USRC16406210
Flavour : 2:256
iTunMOVI : / / / / asset-info / / file-size / 4980025 / flavor / 2:256 / / /
Audio
ID : 1
Format : AAC
Format/Info : Advanced Audio Codec
Format profile : LC
Codec ID : 40
Duration : 2mn 3s
Bit rate mode : Variable
Bit rate : 288 Kbps
Nominal bit rate : 256 Kbps
Maximum bit rate : 295 Kbps
Channel(s) : 2 channels
Channel positions : Front: L R
Sampling rate : 44.1 KHz
Compression mode : Lossy
Stream size : 4.20 MiB (88%)
Language : English
Encoded date : UTC 2027-12-07 06:18:51
Tagged date : UTC 2012-06-01 12:10:16
General
Complete name : D:\Sound\Music\Soundtracks\Sound of Music\VA - The Sound of Music (45th Anniversary Edition) - OST (2010) [AAC]\04 Maria.m4a
Format : MPEG-4
Format profile : Apple audio with iTunes info
Codec ID : M4A
File size : 7.67 MiB
Duration : 3mn 18s
Overall bit rate mode : Variable
Overall bit rate : 325 Kbps
Album : The Sound Of Music - 45th Anniversary Edition
Album/Sorted by : Sound Of Music - 45th Anniversary Edition
Album/Performer : Various Artists
Part/Position : 1
Part/Total : 1
Track name : Maria
Track name/Position : 4
Track name/Total : 25
Compilation : Yes
Performer : Evadne Baker, Anna Lee, Portia Nelson & Marni Nixon
Composer : Richard Rodgers
Genre : Soundtrack
ContentType : Music
Recorded date : UTC 2010-11-02 07:00:00
Tagged date : UTC 2012-06-01 12:11:47
Copyright : ℗ 2010 Sony Music Entertainment /Originally released 1965. All Rights Reserved by Rodgers And Hammerstein.
Cover : Yes
Rating : None
AppleStoreAccount : [url=mailto:[email protected]][email protected][/url]
AppleStoreCatalogID : 399792750
AlbumTitleID : 89734324
cmID : 11554
PlayListID : 399792677
GenreID : 16
AppleStoreCountry : United States
PurchaseDate : 2012-06-01 02:38:18
Vendor : SonyBMG:isrc:USRC16406211
Flavour : 2:256
iTunMOVI : / / / / asset-info / / file-size / 8040861 / flavor / 2:256 / / /
Audio
ID : 1
Format : AAC
Format/Info : Advanced Audio Codec
Format profile : LC
Codec ID : 40
Duration : 3mn 18s
Bit rate mode : Variable
Bit rate : 301 Kbps
Nominal bit rate : 256 Kbps
Maximum bit rate : 327 Kbps
Channel(s) : 2 channels
Channel positions : Front: L R
Sampling rate : 44.1 KHz
Compression mode : Lossy
Stream size : 7.10 MiB (93%)
Language : English
Tagged date : UTC 2012-06-01 12:11:47
General
Complete name : D:\Sound\Music\Soundtracks\Sound of Music\VA - The Sound of Music (45th Anniversary Edition) - OST (2010) [AAC]\05 I Have Confidence.m4a
Format : MPEG-4
Format profile : Apple audio with iTunes info
Codec ID : M4A
File size : 7.44 MiB
Duration : 3mn 27s
Overall bit rate mode : Variable
Overall bit rate : 301 Kbps
Album : The Sound Of Music - 45th Anniversary Edition
Album/Sorted by : Sound Of Music - 45th Anniversary Edition
Album/Performer : Various Artists
Part/Position : 1
Part/Total : 1
Track name : I Have Confidence
Track name/Position : 5
Track name/Total : 25
Compilation : Yes
Performer : Julie Andrews
Composer : Richard Rodgers
Genre : Soundtrack
ContentType : Music
Recorded date : UTC 2010-11-02 07:00:00
Encoded date : UTC 1982-09-28 21:36:11
Tagged date : UTC 2012-06-01 12:11:42
Copyright : ℗ 2010 Sony Music Entertainment /Originally released 1965. All Rights Reserved by Rodgers And Hammerstein.
Cover : Yes
Rating : None
AppleStoreAccount : [url=mailto:[email protected]][email protected][/url]
AppleStoreCatalogID : 399792753
AlbumTitleID : 254431
cmID : 11554
PlayListID : 399792677
GenreID : 16
AppleStoreCountry : United States
PurchaseDate : 2012-06-01 02:38:18
Vendor : SonyBMG:isrc:USRC16406212
Flavour : 2:256
iTunMOVI : / / / / asset-info / / file-size / 7798562 / flavor / 2:256 / / /
Audio
ID : 1
Format : AAC
Format/Info : Advanced Audio Codec
Format profile : LC
Codec ID : 40
Duration : 3mn 27s
Bit rate mode : Variable
Bit rate : 278 Kbps
Nominal bit rate : 256 Kbps
Maximum bit rate : 305 Kbps
Channel(s) : 2 channels
Channel positions : Front: L R
Sampling rate : 44.1 KHz
Compression mode : Lossy
Stream size : 6.87 MiB (92%)
Language : English
Encoded date : UTC 1982-09-28 21:36:11
Tagged date : UTC 2012-06-01 12:11:42
General
Complete name : D:\Sound\Music\Soundtracks\Sound of Music\VA - The Sound of Music (45th Anniversary Edition) - OST (2010) [AAC]\06 Sixteen Going On Seventeen.m4a
Format : MPEG-4
Format profile : Apple audio with iTunes info
Codec ID : M4A
File size : 7.28 MiB
Duration : 3mn 18s
Overall bit rate mode : Variable
Overall bit rate : 308 Kbps
Album : The Sound Of Music - 45th Anniversary Edition
Album/Sorted by : Sound Of Music - 45th Anniversary Edition
Album/Performer : Various Artists
Part/Position : 1
Part/Total : 1
Track name : Sixteen Going On Seventeen
Track name/Position : 6
Track name/Total : 25
Compilation : Yes
Performer : Charmian Carr & Dan Truhitte
Composer : Richard Rodgers
Genre : Soundtrack
ContentType : Music
Recorded date : UTC 2010-11-02 07:00:00
Tagged date : UTC 2012-06-01 12:11:49
Copyright : ℗ 2010 Sony Music Entertainment /Originally released 1965. All Rights Reserved by Rodgers And Hammerstein.
Cover : Yes
Rating : None
AppleStoreAccount : [url=mailto:[email protected]][email protected][/url]
AppleStoreCatalogID : 399792755
AlbumTitleID : 141273146
cmID : 11554
PlayListID : 399792677
GenreID : 16
AppleStoreCountry : United States
PurchaseDate : 2012-06-01 02:38:18
Vendor : SonyBMG:isrc:USRC16406213
Flavour : 2:256
iTunMOVI : / / / / asset-info / / file-size / 7635878 / flavor / 2:256 / / /
Audio
ID : 1
Format : AAC
Format/Info : Advanced Audio Codec
Format profile : LC
Codec ID : 40
Duration : 3mn 18s
Bit rate mode : Variable
Bit rate : 288 Kbps
Nominal bit rate : 256 Kbps
Maximum bit rate : 314 Kbps
Channel(s) : 2 channels
Channel positions : Front: L R
Sampling rate : 44.1 KHz
Compression mode : Lossy
Stream size : 6.72 MiB (92%)
Language : English
Tagged date : UTC 2012-06-01 12:11:49
General
Complete name : D:\Sound\Music\Soundtracks\Sound of Music\VA - The Sound of Music (45th Anniversary Edition) - OST (2010) [AAC]\07 My Favorite Things.m4a
Format : MPEG-4
Format profile : Apple audio with iTunes info
Codec ID : M4A
File size : 5.15 MiB
Duration : 2mn 19s
Overall bit rate mode : Variable
Overall bit rate : 310 Kbps
Album : The Sound Of Music - 45th Anniversary Edition
Album/Sorted by : Sound Of Music - 45th Anniversary Edition
Album/Performer : Various Artists
Part/Position : 1
Part/Total : 1
Track name : My Favorite Things
Track name/Position : 7
Track name/Total : 25
Compilation : Yes
Performer : Julie Andrews
Composer : Richard Rodgers
Genre : Soundtrack
ContentType : Music
Recorded date : UTC 2010-11-02 07:00:00
Tagged date : UTC 2012-06-01 12:12:49
Copyright : ℗ 2010 Sony Music Entertainment /Originally released 1965. All Rights Reserved by Rodgers And Hammerstein.
Cover : Yes
Rating : None
AppleStoreAccount : [url=mailto:[email protected]][email protected][/url]
AppleStoreCatalogID : 399792756
AlbumTitleID : 254431
cmID : 11554
PlayListID : 399792677
GenreID : 16
AppleStoreCountry : United States
PurchaseDate : 2012-06-01 02:38:18
Vendor : SonyBMG:isrc:USRC16406214
Flavour : 2:256
iTunMOVI : / / / / asset-info / / file-size / 5400315 / flavor / 2:256 / / /
Audio
ID : 1
Format : AAC
Format/Info : Advanced Audio Codec
Format profile : LC
Codec ID : 40
Duration : 2mn 19s
Bit rate mode : Variable
Bit rate : 277 Kbps
Nominal bit rate : 256 Kbps
Maximum bit rate : 311 Kbps
Channel(s) : 2 channels
Channel positions : Front: L R
Sampling rate : 44.1 KHz
Compression mode : Lossy
Stream size : 4.59 MiB (89%)
Language : English
Tagged date : UTC 2012-06-01 12:12:49
General
Complete name : D:\Sound\Music\Soundtracks\Sound of Music\VA - The Sound of Music (45th Anniversary Edition) - OST (2010) [AAC]\08 Do-Re-Mi (From the 20th Century-Fox Film _The Sound of Music_).m4a
Format : MPEG-4
Format profile : Apple audio with iTunes info
Codec ID : M4A
File size : 11.9 MiB
Duration : 5mn 33s
Overall bit rate mode : Variable
Overall bit rate : 299 Kbps
Album : The Sound Of Music - 45th Anniversary Edition
Album/Sorted by : Sound Of Music - 45th Anniversary Edition
Album/Performer : Various Artists
Part/Position : 1
Part/Total : 1
Track name : Do-Re-Mi (From the 20th Century-Fox Film "The Sound of Music")
Track name/Position : 8
Track name/Total : 25
Compilation : Yes
Performer : Julie Andrews, Charmian Carr, Heather Menzies, Nicholas Hammond, Duane Chase, Angela Cartwright, Kym Karath & Debbie Turner
Composer : Richard Rodgers
Genre : Soundtrack
ContentType : Music
Recorded date : UTC 2010-11-02 07:00:00
Encoded date : UTC 1981-02-24 02:47:39
Tagged date : UTC 2012-06-01 12:14:01
Copyright : ℗ 2010 Sony Music Entertainment /Originally released 1965. All Rights Reserved by Rodgers And Hammerstein.
Cover : Yes
Rating : None
AppleStoreAccount : [url=mailto:[email protected]][email protected][/url]
AppleStoreCatalogID : 399792762
AlbumTitleID : 254431
cmID : 11554
PlayListID : 399792677
GenreID : 16
AppleStoreCountry : United States
PurchaseDate : 2012-06-01 02:38:18
Vendor : SonyBMG:isrc:USRC16406215
Flavour : 2:256
iTunMOVI : / / / / asset-info / / file-size / 12469061 / flavor / 2:256 / / /
Audio
ID : 1
Format : AAC
Format/Info : Advanced Audio Codec
Format profile : LC
Codec ID : 40
Duration : 5mn 33s
Bit rate mode : Variable
Bit rate : 288 Kbps
Nominal bit rate : 256 Kbps
Maximum bit rate : 318 Kbps
Channel(s) : 2 channels
Channel positions : Front: L R
Sampling rate : 44.1 KHz
Compression mode : Lossy
Stream size : 11.3 MiB (95%)
Language : English
Encoded date : UTC 1981-02-24 02:47:39
Tagged date : UTC 2012-06-01 12:14:01
General
Complete name : D:\Sound\Music\Soundtracks\Sound of Music\VA - The Sound of Music (45th Anniversary Edition) - OST (2010) [AAC]\09 The Sound of Music.m4a
Format : MPEG-4
Format profile : Apple audio with iTunes info
Codec ID : M4A
File size : 5.16 MiB
Duration : 2mn 12s
Overall bit rate mode : Variable
Overall bit rate : 327 Kbps
Album : The Sound Of Music - 45th Anniversary Edition
Album/Sorted by : Sound Of Music - 45th Anniversary Edition
Album/Performer : Various Artists
Part/Position : 1
Part/Total : 1
Track name : The Sound of Music
Track name/Position : 9
Track name/Total : 25
Compilation : Yes
Performer : Charmian Carr, Angela Cartwright, Duane Chase, Nicholas Hammond, Kym Karath, Bill Lee, Heather Menzies & Debbie Turner
Composer : Richard Rodgers
Genre : Soundtrack
ContentType : Music
Recorded date : UTC 2010-11-02 07:00:00
Encoded date : UTC 1987-07-13 06:50:51
Tagged date : UTC 2012-06-01 12:12:55
Copyright : ℗ 2010 Sony Music Entertainment /Originally released 1965. All Rights Reserved by Rodgers And Hammerstein.
Cover : Yes
Rating : None
AppleStoreAccount : [url=mailto:[email protected]][email protected][/url]
AppleStoreCatalogID : 399792766
AlbumTitleID : 141273146
cmID : 11554
PlayListID : 399792677
GenreID : 16
AppleStoreCountry : United States
PurchaseDate : 2012-06-01 02:38:18
Title/Sort : Sound of Music
Vendor : SonyBMG:isrc:USRC16406216
Flavour : 2:256
iTunMOVI : / / / / asset-info / / file-size / 5406429 / flavor / 2:256 / / /
Audio
ID : 1
Format : AAC
Format/Info : Advanced Audio Codec
Format profile : LC
Codec ID : 40
Duration : 2mn 12s
Bit rate mode : Variable
Bit rate : 288 Kbps
Nominal bit rate : 256 Kbps
Maximum bit rate : 309 Kbps
Channel(s) : 2 channels
Channel positions : Front: L R
Sampling rate : 44.1 KHz
Compression mode : Lossy
Stream size : 4.60 MiB (89%)
Language : English
Encoded date : UTC 1987-07-13 06:50:51
Tagged date : UTC 2012-06-01 12:12:55
General
Complete name : D:\Sound\Music\Soundtracks\Sound of Music\VA - The Sound of Music (45th Anniversary Edition) - OST (2010) [AAC]\10 The Lonely Goatherd.m4a
Format : MPEG-4
Format profile : Apple audio with iTunes info
Codec ID : M4A
File size : 7.32 MiB
Duration : 3mn 11s
Overall bit rate mode : Variable
Overall bit rate : 321 Kbps
Album : The Sound Of Music - 45th Anniversary Edition
Album/Sorted by : Sound Of Music - 45th Anniversary Edition
Album/Performer : Various Artists
Part/Position : 1
Part/Total : 1
Track name : The Lonely Goatherd
Track name/Position : 10
Track name/Total : 25
Compilation : Yes
Performer : Julie Andrews, Charmian Carr, Angela Cartwright, Duane Chase, Nicholas Hammond, Kym Karath, Heather Menzies & Debbie Turner
Composer : Richard Rodgers
Genre : Soundtrack
ContentType : Music
Recorded date : UTC 2010-11-02 07:00:00
Tagged date : UTC 2012-06-01 12:14:31
Copyright : ℗ 2010 Sony Music Entertainment /Originally released 1965. All Rights Reserved by Rodgers And Hammerstein.
Cover : Yes
Rating : None
AppleStoreAccount : [url=mailto:[email protected]][email protected][/url]
AppleStoreCatalogID : 399792827
AlbumTitleID : 254431
cmID : 11554
PlayListID : 399792677
GenreID : 16
AppleStoreCountry : United States
PurchaseDate : 2012-06-01 02:38:18
Title/Sort : Lonely Goatherd
Vendor : SonyBMG:isrc:USRC16406217
Flavour : 2:256
iTunMOVI : / / / / asset-info / / file-size / 7679486 / flavor / 2:256 / / /
Audio
ID : 1
Format : AAC
Format/Info : Advanced Audio Codec
Format profile : LC
Codec ID : 40
Duration : 3mn 11s
Bit rate mode : Variable
Bit rate : 296 Kbps
Nominal bit rate : 256 Kbps
Maximum bit rate : 320 Kbps
Channel(s) : 2 channels
Channel positions : Front: L R
Sampling rate : 44.1 KHz
Compression mode : Lossy
Stream size : 6.76 MiB (92%)
Language : English
Tagged date : UTC 2012-06-01 12:14:31
General
Complete name : D:\Sound\Music\Soundtracks\Sound of Music\VA - The Sound of Music (45th Anniversary Edition) - OST (2010) [AAC]\11 Edelweiss.m4a
Format : MPEG-4
Format profile : Apple audio with iTunes info
Codec ID : M4A
File size : 4.96 MiB
Duration : 2mn 17s
Overall bit rate mode : Variable
Overall bit rate : 303 Kbps
Album : The Sound Of Music - 45th Anniversary Edition
Album/Sorted by : Sound Of Music - 45th Anniversary Edition
Album/Performer : Various Artists
Part/Position : 1
Part/Total : 1
Track name : Edelweiss
Track name/Position : 11
Track name/Total : 25
Compilation : Yes
Performer : Charmian Carr & Bill Lee
Composer : Richard Rodgers
Genre : Soundtrack
ContentType : Music
Recorded date : UTC 2010-11-02 07:00:00
Encoded date : UTC 2037-07-02 12:23:39
Tagged date : UTC 2012-06-01 12:13:59
Copyright : ℗ 2010 Sony Music Entertainment /Originally released 1965. All Rights Reserved by Rodgers And Hammerstein.
Cover : Yes
Rating : None
AppleStoreAccount : [url=mailto:[email protected]][email protected][/url]
AppleStoreCatalogID : 399792828
AlbumTitleID : 141273146
cmID : 11554
PlayListID : 399792677
GenreID : 16
AppleStoreCountry : United States
PurchaseDate : 2012-06-01 02:38:18
Vendor : SonyBMG:isrc:USRC16406235
Flavour : 2:256
iTunMOVI : / / / / asset-info / / file-size / 5200015 / flavor / 2:256 / / /
Audio
ID : 1
Format : AAC
Format/Info : Advanced Audio Codec
Format profile : LC
Codec ID : 40
Duration : 2mn 17s
Bit rate mode : Variable
Bit rate : 256 Kbps
Maximum bit rate : 316 Kbps
Channel(s) : 2 channels
Channel positions : Front: L R
Sampling rate : 44.1 KHz
Compression mode : Lossy
Stream size : 4.40 MiB (89%)
Language : English
Encoded date : UTC 2037-07-02 12:23:39
Tagged date : UTC 2012-06-01 12:13:59
General
Complete name : D:\Sound\Music\Soundtracks\Sound of Music\VA - The Sound of Music (45th Anniversary Edition) - OST (2010) [AAC]\12 Laendler.m4a
Format : MPEG-4
Format profile : Apple audio with iTunes info
Codec ID : M4A
File size : 5.67 MiB
Duration : 2mn 27s
Overall bit rate mode : Variable
Overall bit rate : 321 Kbps
Album : The Sound Of Music - 45th Anniversary Edition
Album/Sorted by : Sound Of Music - 45th Anniversary Edition
Album/Performer : Various Artists
Part/Position : 1
Part/Total : 1
Track name : Laendler
Track name/Position : 12
Track name/Total : 25
Compilation : Yes
Performer : Orchestra
Composer : Richard Rodgers
Genre : Soundtrack
ContentType : Music
Recorded date : UTC 2010-11-02 07:00:00
Encoded date : UTC 2010-12-02 11:30:19
Tagged date : UTC 2012-06-01 12:14:53
Copyright : ℗ 2010 Sony Music Entertainment /Originally released 1965. All Rights Reserved by Rodgers And Hammerstein.
Cover : Yes
Rating : None
AppleStoreAccount : [url=mailto:[email protected]][email protected][/url]
AppleStoreCatalogID : 399792829
AlbumTitleID : 86643
cmID : 11554
PlayListID : 399792677
GenreID : 16
AppleStoreCountry : United States
PurchaseDate : 2012-06-01 02:38:18
Vendor : SonyBMG:isrc:USRC16406237
Flavour : 2:256
iTunMOVI : / / / / asset-info / / file-size / 5940950 / flavor / 2:256 / / /
Audio
ID : 1
Format : AAC
Format/Info : Advanced Audio Codec
Format profile : LC
Codec ID : 40
Duration : 2mn 27s
Bit rate mode : Variable
Bit rate : 288 Kbps
Nominal bit rate : 256 Kbps
Maximum bit rate : 311 Kbps
Channel(s) : 2 channels
Channel positions : Front: L R
Sampling rate : 44.1 KHz
Compression mode : Lossy
Stream size : 5.11 MiB (90%)
Language : English
Encoded date : UTC 2010-12-02 11:30:19
Tagged date : UTC 2012-06-01 12:14:53
General
Complete name : D:\Sound\Music\Soundtracks\Sound of Music\VA - The Sound of Music (45th Anniversary Edition) - OST (2010) [AAC]\13 So Long, Farewell.m4a
Format : MPEG-4
Format profile : Apple audio with iTunes info
Codec ID : M4A
File size : 6.56 MiB
Duration : 2mn 55s
Overall bit rate mode : Variable
Overall bit rate : 314 Kbps
Album : The Sound Of Music - 45th Anniversary Edition
Album/Sorted by : Sound Of Music - 45th Anniversary Edition
Album/Performer : Various Artists
Part/Position : 1
Part/Total : 1
Track name : So Long, Farewell
Track name/Position : 13
Track name/Total : 25
Compilation : Yes
Performer : Charmian Carr, Angela Cartwright, Duane Chase, Nicholas Hammond, Kym Karath, Heather Menzies & Debbie Turner
Composer : Richard Rodgers
Genre : Soundtrack
ContentType : Music
Recorded date : UTC 2010-11-02 07:00:00
Tagged date : UTC 2012-06-01 12:15:24
Copyright : ℗ 2010 Sony Music Entertainment /Originally released 1965. All Rights Reserved by Rodgers And Hammerstein.
Cover : Yes
Rating : None
AppleStoreAccount : [url=mailto:[email protected]][email protected][/url]
AppleStoreCatalogID : 399792837
AlbumTitleID : 141273146
cmID : 11554
PlayListID : 399792677
GenreID : 16
AppleStoreCountry : United States
PurchaseDate : 2012-06-01 02:38:18
Vendor : SonyBMG:isrc:USRC16406218
Flavour : 2:256
iTunMOVI : / / / / asset-info / / file-size / 6880911 / flavor / 2:256 / / /
Audio
ID : 1
Format : AAC
Format/Info : Advanced Audio Codec
Format profile : LC
Codec ID : 40
Duration : 2mn 55s
Bit rate mode : Variable
Bit rate : 288 Kbps
Nominal bit rate : 256 Kbps
Maximum bit rate : 318 Kbps
Channel(s) : 2 channels
Channel positions : Front: L R
Sampling rate : 44.1 KHz
Compression mode : Lossy
Stream size : 6.00 MiB (91%)
Language : English
Tagged date : UTC 2012-06-01 12:15:24
General
Complete name : D:\Sound\Music\Soundtracks\Sound of Music\VA - The Sound of Music (45th Anniversary Edition) - OST (2010) [AAC]\14 Entr'Acte.m4a
Format : MPEG-4
Format profile : Apple audio with iTunes info
Codec ID : M4A
File size : 4.48 MiB
Duration : 2mn 8s
Overall bit rate mode : Variable
Overall bit rate : 292 Kbps
Album : The Sound Of Music - 45th Anniversary Edition
Album/Sorted by : Sound Of Music - 45th Anniversary Edition
Album/Performer : Various Artists
Part/Position : 1
Part/Total : 1
Track name : Entr'Acte
Track name/Position : 14
Track name/Total : 25
Compilation : Yes
Performer : Irwin Kostal
Composer : Richard Rodgers
Genre : Soundtrack
ContentType : Music
Recorded date : UTC 2010-11-02 07:00:00
Tagged date : UTC 2012-06-01 12:15:23
Copyright : ℗ 2010 Sony Music Entertainment /Originally released 1965. All Rights Reserved by Rodgers And Hammerstein.
Cover : Yes
Rating : None
AppleStoreAccount : [url=mailto:[email protected]][email protected][/url]
AppleStoreCatalogID : 399792857
AlbumTitleID : 2692783
cmID : 11554
PlayListID : 399792677
GenreID : 16
AppleStoreCountry : United States
PurchaseDate : 2012-06-01 02:38:18
Vendor : SonyBMG:isrc:USRC10503402
Flavour : 2:256
iTunMOVI : / / / / asset-info / / file-size / 4698431 / flavor / 2:256 / / /
Audio
ID : 1
Format : AAC
Format/Info : Advanced Audio Codec
Format profile : LC
Codec ID : 40
Duration : 2mn 8s
Bit rate mode : Variable
Bit rate : 256 Kbps
Maximum bit rate : 296 Kbps
Channel(s) : 2 channels
Channel positions : Front: L R
Sampling rate : 44.1 KHz
Compression mode : Lossy
Stream size : 3.93 MiB (88%)
Language : English
Tagged date : UTC 2012-06-01 12:15:23
General
Complete name : D:\Sound\Music\Soundtracks\Sound of Music\VA - The Sound of Music (45th Anniversary Edition) - OST (2010) [AAC]\15 Climb Ev'ry Mountain.m4a
Format : MPEG-4
Format profile : Apple audio with iTunes info
Codec ID : M4A
File size : 5.21 MiB
Duration : 2mn 17s
Overall bit rate mode : Variable
Overall bit rate : 317 Kbps
Album : The Sound Of Music - 45th Anniversary Edition
Album/Sorted by : Sound Of Music - 45th Anniversary Edition
Album/Performer : Various Artists
Part/Position : 1
Part/Total : 1
Track name : Climb Ev'ry Mountain
Track name/Position : 15
Track name/Total : 25
Compilation : Yes
Performer : Peggy Wood
Composer : Richard Rodgers
Genre : Soundtrack
ContentType : Music
Recorded date : UTC 2010-11-02 07:00:00
Encoded date : UTC 1974-03-28 00:11:55
Tagged date : UTC 2012-06-01 12:15:56
Copyright : ℗ 2010 Sony Music Entertainment /Originally released 1965. All Rights Reserved by Rodgers And Hammerstein.
Cover : Yes
Rating : None
AppleStoreAccount : [url=mailto:[email protected]][email protected][/url]
AppleStoreCatalogID : 399792880
AlbumTitleID : 83832199
cmID : 11554
PlayListID : 399792677
GenreID : 16
AppleStoreCountry : United States
PurchaseDate : 2012-06-01 02:38:18
Vendor : SonyBMG:isrc:USRC16406219
Flavour : 2:256
iTunMOVI : / / / / asset-info / / file-size / 5465459 / flavor / 2:256 / / /
Audio
ID : 1
Format : AAC
Format/Info : Advanced Audio Codec
Format profile : LC
Codec ID : 40
Duration : 2mn 17s
Bit rate mode : Variable
Bit rate : 288 Kbps
Nominal bit rate : 256 Kbps
Maximum bit rate : 309 Kbps
Channel(s) : 2 channels
Channel positions : Front: L R
Sampling rate : 44.1 KHz
Compression mode : Lossy
Stream size : 4.66 MiB (89%)
Language : English
Encoded date : UTC 1974-03-28 00:11:55
Tagged date : UTC 2012-06-01 12:15:56
General
Complete name : D:\Sound\Music\Soundtracks\Sound of Music\VA - The Sound of Music (45th Anniversary Edition) - OST (2010) [AAC]\16 My Favorite Things (Reprise).m4a
Format : MPEG-4
Format profile : Apple audio with iTunes info
Codec ID : M4A
File size : 3.14 MiB
Duration : 1mn 17s
Overall bit rate mode : Variable
Overall bit rate : 341 Kbps
Album : The Sound Of Music - 45th Anniversary Edition
Album/Sorted by : Sound Of Music - 45th Anniversary Edition
Album/Performer : Various Artists
Part/Position : 1
Part/Total : 1
Track name : My Favorite Things (Reprise)
Track name/Position : 16
Track name/Total : 25
Compilation : Yes
Performer : Julie Andrews, Charmian Carr, Heather Menzies, Nicholas Hammond, Duane Chase, Angela Cartwright, Debbie Turner & Kym Karath
Composer : Richard Rodgers
Genre : Soundtrack
ContentType : Music
Recorded date : UTC 2010-11-02 07:00:00
Tagged date : UTC 2012-06-01 12:16:04
Copyright : ℗ 2010 Sony Music Entertainment /Originally released 1965. All Rights Reserved by Rodgers And Hammerstein.
Cover : Yes
Rating : None
AppleStoreAccount : [url=mailto:[email protected]][email protected][/url]
AppleStoreCatalogID : 399792891
AlbumTitleID : 254431
cmID : 11554
PlayListID : 399792677
GenreID : 16
AppleStoreCountry : United States
PurchaseDate : 2012-06-01 02:38:18
Vendor : SonyBMG:isrc:USRC10503403
Flavour : 2:256
iTunMOVI : / / / / asset-info / / file-size / 3287556 / flavor / 2:256 / / /
Audio
ID : 1
Format : AAC
Format/Info : Advanced Audio Codec
Format profile : LC
Codec ID : 40
Duration : 1mn 17s
Bit rate mode : Variable
Bit rate : 282 Kbps
Nominal bit rate : 256 Kbps
Maximum bit rate : 327 Kbps
Channel(s) : 2 channels
Channel positions : Front: L R
Sampling rate : 44.1 KHz
Compression mode : Lossy
Stream size : 2.59 MiB (83%)
Language : English
Tagged date : UTC 2012-06-01 12:16:04
General
Complete name : D:\Sound\Music\Soundtracks\Sound of Music\VA - The Sound of Music (45th Anniversary Edition) - OST (2010) [AAC]\17 Something Good.m4a
Format : MPEG-4
Format profile : Apple audio with iTunes info
Codec ID : M4A
File size : 7.56 MiB
Duration : 3mn 18s
Overall bit rate mode : Variable
Overall bit rate : 320 Kbps
Album : The Sound Of Music - 45th Anniversary Edition
Album/Sorted by : Sound Of Music - 45th Anniversary Edition
Album/Performer : Various Artists
Part/Position : 1
Part/Total : 1
Track name : Something Good
Track name/Position : 17
Track name/Total : 25
Compilation : Yes
Performer : Julie Andrews & Bill Lee
Composer : Richard Rodgers
Genre : Soundtrack
ContentType : Music
Recorded date : UTC 2010-11-02 07:00:00
Encoded date : UTC 1997-02-04 18:43:23
Tagged date : UTC 2012-06-01 12:16:47
Copyright : ℗ 2010 Sony Music Entertainment /Originally released 1965. All Rights Reserved by Rodgers And Hammerstein.
Cover : Yes
Rating : None
AppleStoreAccount : [url=mailto:[email protected]][email protected][/url]
AppleStoreCatalogID : 399792944
AlbumTitleID : 254431
cmID : 11554
PlayListID : 399792677
GenreID : 16
AppleStoreCountry : United States
PurchaseDate : 2012-06-01 02:38:18
Vendor : SonyBMG:isrc:USRC16406220
Flavour : 2:256
iTunMOVI : / / / / asset-info / / file-size / 7929504 / flavor / 2:256 / / /
Audio
ID : 1
Format : AAC
Format/Info : Advanced Audio Codec
Format profile : LC
Codec ID : 40
Duration : 3mn 18s
Bit rate mode : Variable
Bit rate : 296 Kbps
Nominal bit rate : 256 Kbps
Maximum bit rate : 317 Kbps
Channel(s) : 2 channels
Channel positions : Front: L R
Sampling rate : 44.1 KHz
Compression mode : Lossy
Stream size : 7.00 MiB (93%)
Language : English
Encoded date : UTC 1997-02-04 18:43:23
Tagged date : UTC 2012-06-01 12:16:47
General
Complete name : D:\Sound\Music\Soundtracks\Sound of Music\VA - The Sound of Music (45th Anniversary Edition) - OST (2010) [AAC]\18 Processional and Maria.m4a
Format : MPEG-4
Format profile : Apple audio with iTunes info
Codec ID : M4A
File size : 5.55 MiB
Duration : 2mn 27s
Overall bit rate mode : Variable
Overall bit rate : 315 Kbps
Album : The Sound Of Music - 45th Anniversary Edition
Album/Sorted by : Sound Of Music - 45th Anniversary Edition
Album/Performer : Various Artists
Part/Position : 1
Part/Total : 1
Track name : Processional and Maria
Track name/Position : 18
Track name/Total : 25
Compilation : Yes
Performer : Organ, Orchestra, Anna Lee, Portia Nelson, Marni Nixon & Evadne Baker
Composer : Richard Rodgers
Genre : Soundtrack
ContentType : Music
Recorded date : UTC 2010-11-02 07:00:00
Encoded date : UTC 2017-04-19 15:33:31
Tagged date : UTC 2012-06-01 12:17:10
Copyright : ℗ 2010 Sony Music Entertainment /Originally released 1965. All Rights Reserved by Rodgers And Hammerstein.
Cover : Yes
Rating : None
AppleStoreAccount : [url=mailto:[email protected]][email protected][/url]
AppleStoreCatalogID : 399792959
AlbumTitleID : 77282196
cmID : 11554
PlayListID : 399792677
GenreID : 16
AppleStoreCountry : United States
PurchaseDate : 2012-06-01 02:38:18
Vendor : SonyBMG:isrc:USRC16406221
Flavour : 2:256
iTunMOVI : / / / / asset-info / / file-size / 5818224 / flavor / 2:256 / / /
Audio
ID : 1
Format : AAC
Format/Info : Advanced Audio Codec
Format profile : LC
Codec ID : 40
Duration : 2mn 27s
Bit rate mode : Variable
Bit rate : 288 Kbps
Nominal bit rate : 256 Kbps
Maximum bit rate : 303 Kbps
Channel(s) : 2 channels
Channel positions : Front: L R
Sampling rate : 44.1 KHz
Compression mode : Lossy
Stream size : 4.99 MiB (90%)
Language : English
Encoded date : UTC 2017-04-19 15:33:31
Tagged date : UTC 2012-06-01 12:17:10
Яндекс.Метрика
Рейтинг@Mail.ru