Игра престолов / Game of Thrones / Сезон: 4 / Серии: 1-10 (10) (Алан Тейлор / Alan Taylor ...) [2014 г., фэнтези, драма, приключения, HDTVRip, 720p] MVO (LostFilm, AlexFilm, FOX, Oмикрон) + Dub (Kravec) + Original (Eng) + Sub (Rus, Eng)

 

Создавать темы 30-Июн-2014 04:28

-Игра престолов / Game of Thrones
«Победа или смерть»
(4 сезон)
-- Производство: США, Великобритания
Жанр: фэнтези, драма, приключения
Год выпуска: 2014 г.
Продолжительность: 10x ~01:00:00
Перевод: Профессиональный (многоголосый, закадровый) [LostFilm]
Перевод 2: Профессиональный (многоголосый, закадровый) [AlexFilm]
Перевод 3: Профессиональный (полное дублирование) [Kravec]
Перевод 4: Профессиональный (многоголосый, закадровый) [FOX]
Перевод 5: Профессиональный (многоголосый, закадровый) [Oмикрон]
Оригинальный аудиопоток: английский
Режиссер: Алан Тейлор / Alan Taylor, Алекс Грейвз / Алекс Грейвз, Даниэль Минахан / Daniel Minahan ...-В ролях: Лина Хиди, Питер Динклэйдж, Мишель Фэйрли, Эмилия Кларк, Кит Харингтон, Шон Бин, Николай Костер-Вальдау, Айэйн Глен, Марк Эдди, Эйден Гиллен-Описание: Драконы подросли. Дейенерис прокладывает себе путь к трону. Тирион рискует, как никогда прежде. В “Игру” вступают новые герои - принц Оберин (чилиец Педро Паскаль), предводитель тэннов Стир (русский Юрий Колокольников), Тихо Несторис из Железного Банка Браавоса (британец Марк Гэтисс). Действие развивается стремительно, экшна становится все больше, а повороты сюжета делаются круче.
- - -Качество видео: HDTVRip
Контейнер: MKV
Стандарт разрешения: 720p
Видео кодек: H.264/AVC
Аудио кодек: AC3
Видео: 1280x714 at 23.976 fps, ~4 218 kbps avg
Аудио: Russian: 48 kHz, AC3, 3/2 (L,C,R,l,r) + LFE ch, ~384.00 kbps avg |Многоголосый закадровый, LostFilm|
Аудио #2: Russian: 48 kHz, AC3, 3/2 (L,C,R,l,r) + LFE ch, ~384.00 kbps avg |Многоголосый закадровый, AlexFilm|
Аудио #3: Russian: 48 kHz, AC3, 2/0 (L,R) ch, ~192.00 kbps avg |Дубляж, Kravec|
Аудио #4: Russian: 48 kHz, AC3, 3/2 (L,C,R,l,r) + LFE ch, ~384.00 kbps avg |Многоголосый закадровый, FOX|
Аудио #5: Ukrainian: 48 kHz, AC3, 2/0 (L,R) ch, ~384.00 kbps avg |Многоголосый закадровый, Oмикрон|
Аудио #6: English: 48 kHz, AC3, 3/2 (L,C,R,l,r) + LFE ch, ~384.00 kbps avg
Cубтитры: Russian (Forced), Russian (Amedia), Russian (7kingdoms.ru), English

Список серий

01: Two Swords / Два меча
02: The Lion and the Rose / Лев и Роза
03: Breaker of Chains / Разрушительница оков
04: Oathkeeper / Верный клятве
05: First of His Name / Именуемый Первым
06: The Laws of Gods and Men / Законы богов и людей
07: Mockingbird / Пересмешник
08: The Mountain and the Viper / Гора и Змей
09: The Watchers on the Wall / Дозорные на Стене
10: The Children / Дети

Media Info

General
Complete name                    : Y:\Uploads\Pirat.Ca\Game Of Thrones - Season 04 (2014)[720p.HDTVRip]\Game.of.Thrones.S04E01.720p.HDTVRip.4xRus.Ukr.Eng.HDCLUB.mkv
Format                           : Matroska
File size                        : 2.59 GiB
Duration                         : 58mn 11s
Overall bit rate                 : 6 371 Kbps
Movie name                       : Game of Thrones 4x01 (2014) - Release for HDCLUB
Encoded date                     : UTC 2014-04-19 05:43:04
Writing application              : mkvmerge v6.7.0 ('Back to the Ground') 64bit built on Jan  8 2014 15:10:52
Writing library                  : libebml v1.3.0 + libmatroska v1.4.1
Video
ID                               : 1
Format                           : AVC
Format/Info                      : Advanced Video Codec
Format profile                   : [email protected]
Format settings, CABAC           : Yes
Format settings, ReFrames        : 9 frames
Muxing mode                      : Container [email protected]
Codec ID                         : V_MPEG4/ISO/AVC
Duration                         : 58mn 11s
Bit rate                         : 4 133 Kbps
Width                            : 1 280 pixels
Height                           : 714 pixels
Display aspect ratio             : 16:9
Frame rate                       : 23.976 fps
Color space                      : YUV
Chroma subsampling               : 4:2:0
Bit depth                        : 8 bits
Scan type                        : Progressive
Bits/(Pixel*Frame)               : 0.189
Stream size                      : 1.68 GiB (65%)
Title                            : Game of Thrones 4x01: Two Swords - Release for HDCLUB
Language                         : Russian
Audio #1
ID                               : 2
Format                           : AC-3
Format/Info                      : Audio Coding 3
Mode extension                   : CM (complete main)
Codec ID                         : A_AC3
Duration                         : 58mn 11s
Bit rate mode                    : Constant
Bit rate                         : 384 Kbps
Channel(s)                       : 6 channels
Channel positions                : Front: L C R, Side: L R, LFE
Sampling rate                    : 48.0 KHz
Bit depth                        : 16 bits
Stream size                      : 160 MiB (6%)
Title                            : LostFilm
Language                         : Russian
Audio #2
ID                               : 3
Format                           : AC-3
Format/Info                      : Audio Coding 3
Mode extension                   : CM (complete main)
Codec ID                         : A_AC3
Duration                         : 58mn 11s
Bit rate mode                    : Constant
Bit rate                         : 384 Kbps
Channel(s)                       : 6 channels
Channel positions                : Front: L C R, Side: L R, LFE
Sampling rate                    : 48.0 KHz
Bit depth                        : 16 bits
Stream size                      : 160 MiB (6%)
Title                            : AlexFilm
Language                         : Russian
Audio #3
ID                               : 4
Format                           : AC-3
Format/Info                      : Audio Coding 3
Mode extension                   : CM (complete main)
Codec ID                         : A_AC3
Duration                         : 58mn 11s
Bit rate mode                    : Constant
Bit rate                         : 192 Kbps
Channel(s)                       : 2 channels
Channel positions                : Front: L R
Sampling rate                    : 48.0 KHz
Bit depth                        : 16 bits
Stream size                      : 79.9 MiB (3%)
Title                            : Kravec
Language                         : Russian
Audio #4
ID                               : 5
Format                           : AC-3
Format/Info                      : Audio Coding 3
Mode extension                   : CM (complete main)
Codec ID                         : A_AC3
Duration                         : 58mn 11s
Bit rate mode                    : Constant
Bit rate                         : 384 Kbps
Channel(s)                       : 6 channels
Channel positions                : Front: L C R, Side: L R, LFE
Sampling rate                    : 48.0 KHz
Bit depth                        : 16 bits
Stream size                      : 160 MiB (6%)
Title                            : FOX
Language                         : Russian
Audio #5
ID                               : 6
Format                           : AC-3
Format/Info                      : Audio Coding 3
Mode extension                   : CM (complete main)
Codec ID                         : A_AC3
Duration                         : 58mn 11s
Bit rate mode                    : Constant
Bit rate                         : 384 Kbps
Channel(s)                       : 2 channels
Channel positions                : Front: L R
Sampling rate                    : 48.0 KHz
Bit depth                        : 16 bits
Stream size                      : 160 MiB (6%)
Title                            : Omikron
Language                         : Ukrainian
Audio #6
ID                               : 7
Format                           : AC-3
Format/Info                      : Audio Coding 3
Mode extension                   : CM (complete main)
Codec ID                         : A_AC3
Duration                         : 58mn 11s
Bit rate mode                    : Constant
Bit rate                         : 384 Kbps
Channel(s)                       : 6 channels
Channel positions                : Front: L C R, Side: L R, LFE
Sampling rate                    : 48.0 KHz
Bit depth                        : 16 bits
Stream size                      : 160 MiB (6%)
Title                            : English
Language                         : English
Text #1
ID                               : 8
Format                           : ASS
Codec ID                         : S_TEXT/ASS
Codec ID/Info                    : Advanced Sub Station Alpha
Title                            : Forced
Language                         : Russian
Text #2
ID                               : 9
Format                           : UTF-8
Codec ID                         : S_TEXT/UTF8
Codec ID/Info                    : UTF-8 Plain Text
Title                            : Amedia
Language                         : Russian
Text #3
ID                               : 10
Format                           : UTF-8
Codec ID                         : S_TEXT/UTF8
Codec ID/Info                    : UTF-8 Plain Text
Title                            : 7kingdoms.ru
Language                         : Russian
Text #4
ID                               : 11
Format                           : UTF-8
Codec ID                         : S_TEXT/UTF8
Codec ID/Info                    : UTF-8 Plain Text
Title                            : eng-sub
Language                         : English

Скриншот c названием фильма

Скриншоты

Создавать темы 16-Мар-2015 14:42 (спустя 8 месяцев 16 дней)

Торрент умерший? Тут никто не раздает? (((
Яндекс.Метрика
Рейтинг@Mail.ru