[ Сегодня на трекере фрилич! Идет свободное скачивание без начисления Download ]

Троя / Troy (Вольфганг Петерсен) [2004 г., Боевик, мелодрама, драма, история, BDRip 1080p] MVO/DVO/2xAVO |60 fps

 

Создавать темы 30-Июн-2014 03:22

-Троя / Troy- Год выпуска: 2004
Страна: США, Великобритания, Мальта
Жанр: Боевик, мелодрама, драма, история
Продолжительность: 03:16:02
Перевод: Профессиональный (многоголосый, закадровый)/Профессиональный (двухголосый)/2xПрофессиональный (одноголосый)
Режиссер: Вольфганг Петерсен-В ролях: Джулиан Гловер, Брайан Кокс, Натан Джонс, Адони Маропис, Джейкоб Смит, Брэд Питт, Джон Шрэпнел, Брендан Глисон, Дайан Крюгер, Эрик Бана, Орландо Блум, Сири Свеглер, Люси Барат, Кен Бонс, Мануэль Коши, Марк Льюис Джонс, Гаррет Хедлунд, Шон Бин, Джули Кристи, Питер О`Тул, Джеймс Космо-Описание: 1193 год до нашей эры. Наследник престола Трои Парис украл прекрасную Елену, жену царя Спарты Менелая. За честь Менелая вступается его брат — царь Агамемнон. Его армия под предводительством Ахиллеса подошла к Трое и взяла город в кровавую осаду, длившуюся долгих десять лет… Два мира будут воевать за честь и власть. Тысячи умрут за славу. И за любовь нация сгорит дотла.- -Качество: BDRip 1080p
Формат: MKV
Видео кодек: H.264
Аудио кодек: AC3
Видео: 1920x794, 9458 Кбит/сек, 59.940 кадр/сек, AVC, x264, [email protected], 2.40:1, 0.104 Бит/[Пиксели*Кадры], 2pass
Аудио 1: AC-3, 448 Кбит/сек, 6 канала(ов), 48,0 КГц - Многоголосый закадровый, Киномания / Русский
Аудио 2: AC-3, 640 Кбит/сек, 6 канала(ов), 48,0 КГц - Двухголосый закадровый, П. Гланц и И. Королева / Русский
Аудио 3: AC-3, 448 Кбит/сек, 6 канала(ов), 48,0 КГц - Одноголосый закадровый, А.Гаврилов / Русский
Аудио 4: AC-3, 448 Кбит/сек, 6 канала(ов), 48,0 КГц - Одноголосый закадровый, С.Рябов / Русский
Аудио 5: AC-3, 640 Кбит/сек, 6 канала(ов), 48,0 КГц - Оригинал / Английский
Субтитры: Русские | Полные, Английские | Полные
Чаптеры (Главы): Есть-Прежде чем скачивать фильм полностью, скачайте "сэмпл", и проверьте будет ли воспроизводится видео на вашем устройстве!-

MediaInfo

Format : Matroska
Format version : Version 2
File size : 16.5 GiB
Duration : 3h 16mn
Overall bit rate : 12.1 Mbps
Movie name : Троя.(2004).BDRip.1080p.[envy].[60fps]
Encoded date : UTC 2014-03-13 05:15:21
Writing application : mkvmerge v5.8.0 ('No Sleep / Pillow') built on Sep 2 2012 15:37:04
Writing library : libebml v1.2.3 + libmatroska v1.3.0
Video
ID : 1
Format : AVC
Format/Info : Advanced Video Codec
Format profile : [email protected]
Format settings, CABAC : Yes
Format settings, ReFrames : 5 frames
Codec ID : V_MPEG4/ISO/AVC
Duration : 3h 16mn
Bit rate : 9 458 Kbps
Width : 1 920 pixels
Height : 794 pixels
Display aspect ratio : 2.40:1
Frame rate mode : Constant
Frame rate : 59.880 fps
Original frame rate : 59.940 fps
Color space : YUV
Chroma subsampling : 4:2:0
Bit depth : 8 bits
Scan type : Progressive
Bits/(Pixel*Frame) : 0.104
Stream size : 12.6 GiB (76%)
Title : Троя.(2004).BDRip.1080p.[envy].[60fps]
Writing library : x264 core 140 r2377 1ca7bb9
Encoding settings : cabac=1 / ref=5 / deblock=1:-3:-3 / analyse=0x3:0x133 / me=umh / subme=11 / psy=1 / psy_rd=1.00:0.00 / mixed_ref=1 / me_range=32 / chroma_me=1 / trellis=2 / 8x8dct=1 / cqm=0 / deadzone=21,11 / fast_pskip=0 / chroma_qp_offset=-2 / threads=12 / lookahead_threads=1 / sliced_threads=0 / nr=0 / decimate=1 / interlaced=0 / bluray_compat=0 / constrained_intra=0 / bframes=5 / b_pyramid=2 / b_adapt=2 / b_bias=0 / direct=3 / weightb=1 / open_gop=0 / weightp=2 / keyint=250 / keyint_min=25 / scenecut=40 / intra_refresh=0 / rc=2pass / mbtree=0 / bitrate=9458 / ratetol=2.0 / qcomp=0.60 / qpmin=0 / qpmax=69 / qpstep=4 / cplxblur=20.0 / qblur=0.5 / ip_ratio=1.40 / pb_ratio=1.30 / aq=2:0.90
Language : English
Default : Yes
Forced : No
Audio #1
ID : 2
Format : AC-3
Format/Info : Audio Coding 3
Mode extension : CM (complete main)
Format settings, Endianness : Big
Codec ID : A_AC3
Duration : 3h 16mn
Bit rate mode : Constant
Bit rate : 448 Kbps
Channel count : 6 channels
Channel positions : Front: L C R, Side: L R, LFE
Sampling rate : 48.0 KHz
Bit depth : 16 bits
Compression mode : Lossy
Stream size : 628 MiB (4%)
Title : Kinomanija
Language : Russian
Default : No
Forced : No
Audio #2
ID : 3
Format : AC-3
Format/Info : Audio Coding 3
Mode extension : CM (complete main)
Format settings, Endianness : Big
Codec ID : A_AC3
Duration : 3h 16mn
Bit rate mode : Constant
Bit rate : 640 Kbps
Channel count : 6 channels
Channel positions : Front: L C R, Side: L R, LFE
Sampling rate : 48.0 KHz
Bit depth : 16 bits
Compression mode : Lossy
Stream size : 897 MiB (5%)
Title : Glanz & Koroleva
Language : Russian
Default : No
Forced : No
Audio #3
ID : 4
Format : AC-3
Format/Info : Audio Coding 3
Mode extension : CM (complete main)
Format settings, Endianness : Big
Codec ID : A_AC3
Duration : 3h 16mn
Bit rate mode : Constant
Bit rate : 448 Kbps
Channel count : 6 channels
Channel positions : Front: L C R, Side: L R, LFE
Sampling rate : 48.0 KHz
Bit depth : 16 bits
Compression mode : Lossy
Stream size : 628 MiB (4%)
Title : Gavrilov
Language : Russian
Default : No
Forced : No
Audio #4
ID : 5
Format : AC-3
Format/Info : Audio Coding 3
Mode extension : CM (complete main)
Format settings, Endianness : Big
Codec ID : A_AC3
Duration : 3h 16mn
Bit rate mode : Constant
Bit rate : 448 Kbps
Channel count : 6 channels
Channel positions : Front: L C R, Side: L R, LFE
Sampling rate : 48.0 KHz
Bit depth : 16 bits
Compression mode : Lossy
Stream size : 628 MiB (4%)
Title : Rjabov
Language : Russian
Default : No
Forced : No
Audio #5
ID : 6
Format : AC-3
Format/Info : Audio Coding 3
Mode extension : CM (complete main)
Format settings, Endianness : Big
Codec ID : A_AC3
Duration : 3h 16mn
Bit rate mode : Constant
Bit rate : 640 Kbps
Channel count : 6 channels
Channel positions : Front: L C R, Side: L R, LFE
Sampling rate : 48.0 KHz
Bit depth : 16 bits
Compression mode : Lossy
Stream size : 897 MiB (5%)
Title : Eng
Language : English
Default : No
Forced : No
Text #1
ID : 7
Format : UTF-8
Codec ID : S_TEXT/UTF8
Codec ID/Info : UTF-8 Plain Text
Title : rus full
Language : Russian
Default : No
Forced : No
Text #2
ID : 8
Format : UTF-8
Codec ID : S_TEXT/UTF8
Codec ID/Info : UTF-8 Plain Text
Title : eng full
Language : English
Default : No
Forced : No
Menu
00:00:00.000 : en:Foreword
00:01:30.090 : en:Awaiting Achilles
00:08:16.329 : en:"Is There No One Else?"
00:11:06.332 : en:Secret Lovers
00:18:22.101 : en:Brothers' Pledges
00:25:33.365 : en:Greatest War
00:27:41.493 : en:Recruiter Odysseus
00:33:23.335 : en:Glory and Doom
00:36:39.864 : en:Royal Welcome
00:40:01.566 : en:They're Coming for Me
00:44:50.187 : en:Immortality Is Yours
00:52:32.316 : en:Beach Combat
00:58:00.143 : en:Too Early in the Day
01:03:48.992 : en:No Need to Fear
01:07:41.224 : en:Spoils of War
01:12:36.352 : en:The Way I Love Helen
01:17:55.838 : en:Power, Not Love
01:21:31.720 : en:Soldiers Obey
01:23:55.864 : en:Gathering Forces
01:28:49.324 : en:Brave Offer
01:32:23.371 : en:Paris vs. Menelaus
01:36:58.146 : en:Battle Cry
01:41:39.093 : en:Greek Retreat
01:44:56.957 : en:Weak Morale
01:48:15.322 : en:Everyone Dies
01:54:20.687 : en:Born for This War
01:57:26.039 : en:Priam's Order
02:00:05.698 : en:Flaming Attack
02:03:47.086 : en:Hector's Adversary
02:08:40.212 : en:Tragic Mistake
02:10:42.668 : en:Night of Torments
02:15:10.436 : en:Summoned to Fight
02:20:47.773 : en:Now You Know
02:23:08.246 : en:Hector vs. Achilles
02:26:25.110 : en:Desecrating the Dead
02:28:29.734 : en:A Father's Plea
02:34:48.446 : en:Achilles' Word
02:37:28.939 : en:Inspirations and Honors
02:41:20.170 : en:Parting Gift
02:45:40.764 : en:Troy Under Siege
02:51:09.759 : en:We Will Be Together
02:55:39.028 : en:Royal Bloodshed
02:58:42.712 : en:Brought to Hell
03:02:24.433 : en:I Walked With Giants
03:05:12.601 : en:End Credits
Скриншоты
- - -
Яндекс.Метрика
Рейтинг@Mail.ru