Алексей Коньков | Уроки Pinnacle Studio 17 (2014)[PCRec]

 

Создавать темы 29-Июн-2014 20:45

Алексей Коньков
Уроки Pinnacle Studio 17
- Автор (режиссер): Алексей Коньков
Жанр: Обучающее видео
Продолжительность: 00:58:08
Качество видео: PCRec
Видеокодек: mp42
Битрейт видео: ~450 kb/s
Размер кадра: 1280x720 (16:9)
Аудиокодек: AAC
Битрейт аудио: 144 kb/s,1 Ch,44100 Hz
Описание:
Данный видеокурс состоит из 6 обучающих видео продолжительностью 58 минут и предназначен для ознакомления с интерфейсом программы Pinnacle Studio 17 именно тех пользователей,которые впервые открывают для себя эту программу. Также представлены примеры обработки видео:создание слайд-шоу,наложение титров и другое.
Данная раздача предполагает обновление по мере появления новых уроков на канале автора.

Список уроков

01. Обзор
02. Слайд-шоу
03. Титры
04. Разбивка на сцены
05. Работа с фотографиями
06. Настройка скорости видео и аудио

Информация MediaInfo

Общее
Полное имя : G:\ОБУЧЕНИЕ\PINNACLE STUDIO\Уроки по Pinnacle Studio 17\1. Обзор.mp4
Формат : MPEG-4
Профиль формата : Base Media / Version 2
Идентификатор кодека : mp42
Размер файла : 96,2 Мбайт
Продолжительность : 21 м.
Режим общего битрейта : Переменный
Общий поток : 621 Кбит/сек
Дата кодирования : UTC 2014-01-04 12:04:38
Дата пометки : UTC 2014-01-04 12:04:38
gsst : 0
gstd : 1300966
gssd : B6DA3DDC4MH1388926512583935
gshh : r1---sn-hxb52vapn-p3ue.googlevideo.com
Видео
Идентификатор : 1
Формат : AVC
Формат/Информация : Advanced Video Codec
Профиль формата : [url=mailto:[email protected]][email protected][/url]
Параметр CABAC формата : Да
Параметр ReFrames формата : 1 кадр
Параметр GOP формата : M=1, N=50
Идентификатор кодека : avc1
Идентификатор кодека/Информация : Advanced Video Coding
Продолжительность : 21 м.
Битрейт : 475 Кбит/сек
Максимальный битрейт : 5299 Кбит/сек
Ширина : 1280 пикселей
Высота : 720 пикселей
Соотношение сторон : 16:9
Режим частоты кадров : Постоянный
Частота кадров : 10,000 кадров/сек
Цветовое пространство : YUV
Субдискретизация насыщенности : 4:2:0
Битовая глубина : 8 бит
Тип развёртки : Прогрессивная
Бит/(Пиксели*Кадры) : 0.052
Размер потока : 73,6 Мбайт (76%)
Дата пометки : UTC 2014-01-04 12:04:40
Аудио
Идентификатор : 2
Формат : AAC
Формат/Информация : Advanced Audio Codec
Профиль формата : LC
Идентификатор кодека : 40
Продолжительность : 21 м.
Вид битрейта : Переменный
Битрейт : 144 Кбит/сек
Максимальный битрейт : 152 Кбит/сек
Каналы : 1 канал
Расположение каналов : Front: C
Частота : 44,1 КГц
Метод сжатия : С потерями
Размер потока : 22,3 Мбайт (23%)
Заголовок : IsoMedia File Produced by Google, 5-11-2011
Дата кодирования : UTC 2014-01-04 12:04:39
Дата пометки : UTC 2014-01-04 12:04:40

История добавления новых уроков

29.06.2014г. добавлено 2 урока:
05. Работа с фотографиями
06. Настройка скорости видео и аудио
Скриншоты:

Яндекс.Метрика
Рейтинг@Mail.ru