[ Сегодня на трекере фрилич! Идет свободное скачивание без начисления Download ]

Поезда высшего класса / luxury train (2013) HDTV 1080i

 

Создавать темы 22-Окт-2013 16:27

Поезда высшего класса / luxury train
Год выпуска: 2013
Страна: UK
Студия: travel channel
Жанр: documental
Продолжительность: ~45min
Перевод: Профессиональный (двухголосый закадровый)
Русские субтитры: нет
Режиссер: travel channel
Описание: Поезда высшего класса
реклама не вырезана
Тип релиза: HDTV 1080i
Контейнер: TS
Видео: MPEG-TS, 1920x1080, 25.00fps, 16:9, 9.3 Mb/сек
Аудио: MPEG Audio Version 1 Layer 2, 48.0 кГц, 192 Кбіт/сек
Аудио 2: no

MediaInfo

General
ID : 9 (0x9)
Complete name : E:luxury trainepisode 01.ts
Format : MPEG-TS
File size : 3.04 GiB
Duration : 52mn 10s
Overall bit rate : 8 348 Kbps
Video
ID : 306 (0x132)
Menu ID : 26006 (0x6596)
Format : AVC
Format/Info : Advanced Video Codec
Format profile : [email protected]
Format settings, CABAC : Yes
Format settings, ReFrames : 3 frames
Codec ID : 27
Duration : 52mn 10s
Bit rate : 7 548 Kbps
Width : 1 920 pixels
Height : 1 080 pixels
Display aspect ratio : 16:9
Frame rate : 25.000 fps
Standard : Component
Color space : YUV
Chroma subsampling : 4:2:0
Bit depth : 8 bits
Scan type : Interlaced
Scan order : Top Field First
Bits/(Pixel*Frame) : 0.146
Stream size : 2.75 GiB (90%)
Color primaries : BT.709-5, BT.1361, IEC 61966-2-4, SMPTE RP177
Transfer characteristics : BT.709-5, BT.1361
Matrix coefficients : BT.709-5, BT.1361, IEC 61966-2-4 709, SMPTE RP177
Audio #1
ID : 406 (0x196)
Menu ID : 26006 (0x6596)
Format : MPEG Audio
Format version : Version 1
Format profile : Layer 2
Codec ID : 4
Duration : 52mn 10s
Bit rate mode : Constant
Bit rate : 192 Kbps
Channel(s) : 2 channels
Sampling rate : 48.0 KHz
Compression mode : Lossy
Delay relative to video : -803ms
Stream size : 71.6 MiB (2%)
Language : Russian
Language, more info : Clean effects
Audio #2
ID : 426 (0x1AA)
Menu ID : 26006 (0x6596)
Format : MPEG Audio
Format version : Version 1
Format profile : Layer 2
Codec ID : 4
Duration : 52mn 10s
Bit rate mode : Constant
Bit rate : 192 Kbps
Channel(s) : 2 channels
Sampling rate : 48.0 KHz
Compression mode : Lossy
Delay relative to video : -803ms
Stream size : 71.6 MiB (2%)
Language : English
Language, more info : Clean effects
Menu
ID : 206 (0xCE)
Menu ID : 26006 (0x6596)
Duration : 52mn 10s
List : 306 (0x132) (AVC) / 406 (0x196) (MPEG Audio, Russian) / 426 (0x1AA) (MPEG Audio, English)
Language : / Russian / English

Скриншоты

Яндекс.Метрика
Рейтинг@Mail.ru