[ Сегодня на трекере фрилич! Идет свободное скачивание без начисления Download ]

Давай поцелуемся (Сергей Чекалов)(2014,Мелодрама, Комедия) SATRip [серии 1-12 из 12]

 

Создавать темы 28-Июн-2014 21:16

-Давай поцелуемся (2014) SATRip [серии 1-12 из 12]- Год выпуска: 2014
Выпущено: Украина, 1+1 продакшн
Жанр: Мелодрама, Комедия

Режиссер: Сергей Чекалов
Актеры: Юлия Такшина, Артём Ткаченко, Ольга Чудакова, Кирилл Жандаров, Вова Машук, София Корецкая, Юлия Куварзина, Максим Максимюк, Сергей Радченко (III), Екатерина Гулякова, Андрей Мостренко, Тамара Плашенко, Николай Боклан, Евгения Гладий, Александр Жуковин, Дмитрий Гаврилов (II), Михаил Кукуюк, Валентина Ищенко, Михаил Пшеничный, Виктор Цекало, Марина Куклина, Василий Кухарский, Дмитрий Малиночка, Елена Кривда, Виталий Челканов, Софья Письман, Сергей Сипливый, Константин Войтенко
Описание фильма:
Новая романтическая комедия с драматическими поворотами сюжета от украинского режиссера Сергея Чекалова имеет довольно интригующее название «Давай поцелуемся!». Центральное место в ней будут занимать проблемы, которые возникают между людьми в начале их отношений. Мужчины и женщины. С чем им приходится столкнуться, когда в их сердце рождается любовь?
Продолжительность: ~ 00:45:00 серия
Качество видео: SATRip
Сэмпл: Скачать
Битрейт видео: ~1261 kb/s
Размер кадра: 704x400 (16:9)
Аудиокодек: MP3
Битрейт аудио: 2 ch, 128 kb/s

MediaInfo

Общее
Полное имя : E:\Фильмы\Давай_поцелуемся.2014.SATRip\Давай_поцелуемся_01.avi
Формат : AVI
Формат/Информация : Audio Video Interleave
Размер файла : 450 Мбайт
Продолжительность : 45 м.
Общий поток : 1396 Кбит/сек
Программа кодирования : VirtualDubMod 1.5.4.1 (build 2178/release)
Библиотека кодирования : VirtualDubMod build 2178/release
Видео
Идентификатор : 0
Формат : MPEG-4 Visual
Профиль формата : Advanced [email protected]
Параметр BVOP формата : Нет
Параметр QPel формата : Нет
Параметр GMC формата : Без точки перехода
Параметр матрицы формата : Выборочная
Идентификатор кодека : XVID
Идентификатор кодека/Подсказка : XviD
Продолжительность : 45 м.
Битрейт : 1261 Кбит/сек
Ширина : 704 пикселя
Высота : 400 пикселей
Соотношение сторон : 16:9
Частота кадров : 25,000 кадров/сек
Цветовое пространство : YUV
Субдискретизация насыщенности : 4:2:0
Битовая глубина : 8 бит
Тип развёртки : Прогрессивная
Метод сжатия : С потерями
Бит/(Пиксели*Кадры) : 0.179
Размер потока : 406 Мбайт (90%)
Библиотека кодирования : XviD 1.2.1 (UTC 2008-12-04)
Аудио
Идентификатор : 1
Формат : MPEG Audio
Версия формата : Version 1
Профиль формата : Layer 3
Режим : Joint stereo
Расширение режима : MS Stereo
Идентификатор кодека : 55
Идентификатор кодека/Подсказка : MP3
Продолжительность : 45 м.
Вид битрейта : Постоянный
Битрейт : 128 Кбит/сек
Каналы : 2 канала
Частота : 48,0 КГц
Метод сжатия : С потерями
Размер потока : 41,2 Мбайт (9%)
Выравнивание : Соединение по промежуткам
Продолжительность промежутка : 80 мс. (2,00 видеокадра)
Время предзагрузки промежутка : 504 мс.
Библиотека кодирования : LAME3.98r
Настройки программы : -m j -V 4 -q 2 -lowpass 17 -b 128
Скриншоты:
Яндекс.Метрика
Рейтинг@Mail.ru