[ Сегодня на трекере фрилич! Идет свободное скачивание без начисления Download ]

Любовницы / Mistresses (Джон Скотт, Чери Ноулан, Тара Николь Вейр)(2013,Драма) WEB-DLRip (Сезон 1, серии 1-13 из 13) Fox

 

Создавать темы 28-Июн-2014 21:05

-Любовницы / Mistresses (2013) WEB-DLRip (Сезон 1, серии 1-13 из 13) Fox- Страна: США, Великобритания
Год выпуска: 2013
Жанр: Драма
Перевод: Дублированный
Озвучка: Fox Life
Вид субтитров: Отсутствуют

Дата мировой премьеры: 05.03.2013
Дата российской премьеры: 02.09.2013
Режиссер: Джон Скотт, Чери Ноулан, Тара Николь Вейр
Актеры: Алисса Милано, Рошелль Эйтс, Джесс Макаллан, Ким Юн Джин, Корина Мессиа, Эрик Стоклин, Эшли Ньюбро, Темина Санни, Джейден Уайт, Бретт Такер
Описание фильма:
Провокационная и захватывающая драма о скандальной жизни сексуальной и нахальной группы из четырех подруг, каждая из которой находится в сложных и опасных отношениях с окружающими.
Продолжительность: ~ 00:43:00 серия
Качество видео: WEB-DLRip
Сэмпл: Скачать
Видеокодек: Xvid
Битрейт видео: ~1347 kbps
Размер кадра: 720x400 (16:9)
Аудио 1 Rus: MP3, 48,0 KHz, 128 kbps, 2 ch
Аудио 2 Eng: MP3, 48,0 KHz, 128 kbps, 2 ch

Дополнительная информация:

Американский драматический телесериал, разработанный К. Й. Стейнберг и основанный на одноименном британском телесериале Любовницы 2008-2010 годов.

MediaInfo

General
Complete name : \Lubovnitsy.sezon1.2013\Lubovnitsy.sezon1.e01.WEBDLRip.avi
Format : AVI
Format/Info : Audio Video Interleave
File size : 499 MiB
Duration : 43mn 8s
Overall bit rate : 1 618 Kbps
Writing application : VirtualDubMod 1.5.10.2 (build 2540/release)
Writing library : VirtualDubMod build 2540/release
Video
ID : 0
Format : MPEG-4 Visual
Format profile : Advanced [email protected]
Format settings, BVOP : 2
Format settings, QPel : No
Format settings, GMC : No warppoints
Format settings, Matrix : Default (MPEG)
Codec ID : XVID
Codec ID/Hint : XviD
Duration : 43mn 8s
Bit rate : 1 348 Kbps
Width : 720 pixels
Height : 400 pixels
Display aspect ratio : 16:9
Frame rate : 23.976 fps
Color space : YUV
Chroma subsampling : 4:2:0
Bit depth : 8 bits
Scan type : Progressive
Compression mode : Lossy
Bits/(Pixel*Frame) : 0.195
Stream size : 416 MiB (83%)
Writing library : XviD 64
Audio #1
ID : 1
Format : MPEG Audio
Format version : Version 1
Format profile : Layer 3
Mode : Joint stereo
Mode extension : MS Stereo
Codec ID : 55
Codec ID/Hint : MP3
Duration : 43mn 8s
Bit rate mode : Constant
Bit rate : 128 Kbps
Channel(s) : 2 channels
Sampling rate : 48.0 KHz
Compression mode : Lossy
Stream size : 39.5 MiB (8%)
Alignment : Aligned on interleaves
Interleave, duration : 42 ms (1.00 video frame)
Interleave, preload duration : 504 ms
Audio #2
ID : 2
Format : MPEG Audio
Format version : Version 1
Format profile : Layer 3
Mode : Joint stereo
Codec ID : 55
Codec ID/Hint : MP3
Duration : 43mn 8s
Bit rate mode : Constant
Bit rate : 128 Kbps
Channel(s) : 2 channels
Sampling rate : 48.0 KHz
Compression mode : Lossy
Stream size : 39.5 MiB (8%)
Alignment : Aligned on interleaves
Interleave, duration : 42 ms (1.00 video frame)
Interleave, preload duration : 504 ms
Скриншоты:
Яндекс.Метрика
Рейтинг@Mail.ru