Раскол / Fractured ( Адам Гираш/ Adam Gierasch) [2013, Триллер, WEB-DLRip] VO

 

Создавать темы 28-Июн-2014 09:04

Раскол / Fractured- Год выпуска: 2013
Производство: США
Жанр: Триллер
Описание фильма:
История Дилана Уайта, ресторанного повара, встречающегося с милашкой по имени Брэнди. Но в результате некоторых таинственных событий Дилан узнает, что в его прошлом есть темные тайны...
Режиссер: Адам Гираш
Актеры: Каллум Блу, Винни Джонс, Эшлинн Йенни, Николь Лалиберт, Джон Эйз, Эрик Ф. Адамс, Стив ДеМартино, Лили Вирджиния Филсон, Брент Генри, Джанин Хилл
Продолжительность: 01:30:37
Качество видео: WEB-DLRip
Перевод: Одноголосый закадровый, любительский (datynet)
Дата мировой премьеры: 14 апреля 2013
Видеокодек: Xvid
Битрейт видео: ~1938 kb/s
Размер кадра: 720х304
Аудиокодек: MP3
Битрейт аудио: 192 kb/s

MediaInfo:

Общее
Формат                                   : AVI
Формат/Информация                        : Audio Video Interleave
Размер файла                             : 1,35 Гбайт
Продолжительность                        : 1 ч. 30 м.
Общий поток                              : 2140 Кбит/сек
Программа кодирования                    : VirtualDubMod 1.5.10.3 (build 2550/release)
Библиотека кодирования                   : VirtualDubMod build 2550/release
[br]
Видео
Идентификатор                            : 0
Формат                                   : MPEG-4 Visual
Профиль формата                          : Advanced [email protected]
Параметр BVOP формата                    : 1
Параметр QPel формата                    : Нет
Параметр GMC формата                     : Без точки перехода
Параметр матрицы формата                 : Выборочная
Идентификатор кодека                     : XVID
Идентификатор кодека/Подсказка           : XviD
Продолжительность                        : 1 ч. 30 м.
Битрейт                                  : 1938 Кбит/сек
Ширина                                   : 720 пикселей
Высота                                   : 304 пикселя
Соотношение сторон                       : 2,35:1
Частота кадров                           : 23,976 кадра/сек
Цветовое пространство                    : YUV
Субдискретизация насыщенности            : 4:2:0
Битовая глубина                          : 8 бит
Тип развёртки                            : Прогрессивная
Метод сжатия                             : С потерями
Бит/(Пиксели*Кадры)                      : 0.369
Размер потока                            : 1,23 Гбайт (91%)
Библиотека кодирования                   : XviD 1.2.1 (UTC 2008-12-04)
[br]
Аудио
Идентификатор                            : 1
Формат                                   : MPEG Audio
Версия формата                           : Version 1
Профиль формата                          : Layer 3
Идентификатор кодека                     : 55
Идентификатор кодека/Подсказка           : MP3
Продолжительность                        : 1 ч. 30 м.
Вид битрейта                             : Постоянный
Битрейт                                  : 192 Кбит/сек
Каналы                                   : 2 канала
Частота                                  : 44,1 КГц
Метод сжатия                             : С потерями
Размер потока                            : 124 Мбайт (9%)
Выравнивание                             : Разделение по промежуткам
Продолжительность промежутка             : 42  мс. (1,00 видеокадр)
Время предзагрузки промежутка            : 500  мс.
Скриншоты:
Яндекс.Метрика
Рейтинг@Mail.ru