(Aztec Ritual Massacre Black Metal) [CD] Hacavitz - Venganza - 2006, FLAC (image+.cue), lossless

 

Создавать темы 28-Июн-2014 02:43

Hacavitz / Venganza
Жанр: Aztec Ritual Massacre Black Metal
Носитель: CD
Год издания: 2006
Издатель (лейбл): Moribund Records
Номер по каталогу: DEAD 71 CD
Страна: Estados Unidos Mexicanos
Аудиокодек: FLAC (*.flac)
Тип рипа: image+.cue
Битрейт аудио: lossless
Продолжительность: 0:52:27.853 (138820332 samples)
Источник (релизер): Я сам
Наличие сканов в содержимом раздачи: да
Треклист:
01. Nightwinds 5:41.533
02. Ultimate Covenant 4:06.013
03. Tsita Ndäte 4:11.720
04. Fathom Thee Eerie 4:28.747
05. Old Rancor 6:34.627
06. Lusting the Dead Ov Night 5:00.400
07. Venganza 3:53.760
08. Mixtla Miquixtli 6:21.827
09. Lightning Bolts Ov Dead 5:03.653
10. Viaje a Mictlan 7:05.573

Лог создания рипа

Exact Audio Copy V1.0 beta 3 from 29. August 2011
EAC extraction logfile from 27. June 2014, 14:34
Hacavitz / Venganza
Used drive : ATAPI iHAS624 B Adapter: 2 ID: 0
Read mode : SecureUtilize accurate stream : YesDefeat audio cache : YesMake use of C2 pointers : No
Read offset correction : 6Overread into Lead-In and Lead-Out : NoFill up missing offset samples with silence : YesDelete leading and trailing silent blocks : NoNull samples used in CRC calculations : YesUsed interface : Native Win32 interface for Win NT & 2000
Used output format : User Defined EncoderSelected bitrate : 1024 kBit/sQuality : HighAdd ID3 tag : YesCommand line compressor : E:\Program Files\Exact Audio Copy\FLAC\FLAC.EXEAdditional command line options : -6 -V -T "ARTIST=%artist%" -T "TITLE=%title%" -T "ALBUM=%albumtitle%" -T "DATE=%year%" -T "TRACKNUMBER=%tracknr%" -T "GENRE=%genre%" -T "COMMENT=%comment%" -T "BAND=%albuminterpret%" -T "ALBUMARTIST=%albuminterpret%" -T "COMPOSER=%composer%" %haslyrics%--tag-from-file=LYRICS="%lyricsfile%"%haslyrics% -T "DISCNUMBER=%cdnumber%" -T "TOTALDISCS=%totalcds%" -T "TOTALTRACKS=%numtracks%" %hascover%--picture="%coverfile%"%hascover% %source% -o %dest%
TOC of the extracted CD
Track | Start | Length | Start sector | End sector --------------------------------------------------------- 1 | 0:00.00 | 5:41.40 | 0 | 25614 2 | 5:41.40 | 4:06.01 | 25615 | 44065 3 | 9:47.41 | 4:11.54 | 44066 | 62944 4 | 13:59.20 | 4:28.56 | 62945 | 83100 5 | 18:28.01 | 6:34.47 | 83101 | 112697 6 | 25:02.48 | 5:00.30 | 112698 | 135227 7 | 30:03.03 | 3:53.57 | 135228 | 152759 8 | 33:56.60 | 6:21.62 | 152760 | 181396 9 | 40:18.47 | 5:03.49 | 181397 | 204170 10 | 45:22.21 | 7:05.43 | 204171 | 236088
Range status and errors
Selected range
Filename J:\µTorrent\(MY RELEASES)\Hacavitz - Venganza.wav
Peak level 96.6 % Extraction speed 7.5 X Range quality 100.0 % Test CRC 747F3329 Copy CRC 747F3329 Copy OK
No errors occurred
AccurateRip summary
Track 1 accurately ripped (confidence 2) [399FC4AB] (AR v1)Track 2 accurately ripped (confidence 2) [20CED0E7] (AR v1)Track 3 accurately ripped (confidence 2) [8466E82F] (AR v1)Track 4 accurately ripped (confidence 2) [45073858] (AR v1)Track 5 accurately ripped (confidence 2) [927BA086] (AR v1)Track 6 accurately ripped (confidence 2) [CB61CC30] (AR v1)Track 7 accurately ripped (confidence 2) [04C5DE7F] (AR v1)Track 8 accurately ripped (confidence 2) [72EC5B3E] (AR v1)Track 9 accurately ripped (confidence 2) [ED5ADD2E] (AR v1)Track 10 accurately ripped (confidence 2) [DAB9EFCF] (AR v1)
All tracks accurately ripped
End of status report
---- CUETools DB Plugin V2.1.3
[CTDB TOCID: SUPrf6x7tySRMl5I8TH2WzN1KTM-] disk not present in database, Submit result: SUPrf6x7tySRMl5I8TH2WzN1KTM- has been uploaded
==== Log checksum 3C60B90F7A778B5996943DC39E555AF29A528A9C181F90EC224A30977E1EBFB8 ====

Содержание индексной карты (.CUE)

REM SAMPLES_COUNT 138820332REM GENRE "Blackened Death Metal"REM DATE 2006REM DISCID 6E0C4B0AREM COMMENT "ExactAudioCopy v1.0b3"PERFORMER "Hacavitz"TITLE "Venganza"FILE "Venganza.flac" WAVE TRACK 01 AUDIO TITLE "Nightwinds" PERFORMER "Hacavitz" INDEX 01 00:00:00 TRACK 02 AUDIO TITLE "Ultimate Covenant" PERFORMER "Hacavitz" INDEX 01 05:41:40 TRACK 03 AUDIO TITLE "Tsita Ndäte" PERFORMER "Hacavitz" INDEX 01 09:47:41 TRACK 04 AUDIO TITLE "Fathom Thee Eerie" PERFORMER "Hacavitz" INDEX 01 13:59:20 TRACK 05 AUDIO TITLE "Old Rancor" PERFORMER "Hacavitz" INDEX 01 18:28:01 TRACK 06 AUDIO TITLE "Lusting the Dead Ov Night" PERFORMER "Hacavitz" INDEX 01 25:02:48 TRACK 07 AUDIO TITLE "Venganza" PERFORMER "Hacavitz" INDEX 01 30:03:03 TRACK 08 AUDIO TITLE "Mixtla Miquixtli" PERFORMER "Hacavitz" INDEX 01 33:56:60 TRACK 09 AUDIO TITLE "Lightning Bolts Ov Dead" PERFORMER "Hacavitz" INDEX 01 40:18:47 TRACK 10 AUDIO TITLE "Viaje a Mictlan" PERFORMER "Hacavitz" INDEX 01 45:22:21

Об исполнителе (группе)

The band took their name from the Mayan god Jacawitz. The lyrical themes include death, darkness, and pre-Hispanic mythology.

Яндекс.Метрика
Рейтинг@Mail.ru