[ Сегодня на трекере фрилич! Идет свободное скачивание без начисления Download ]

(Power Metal) [CD] Powersurge - Eye Of The Storm - 2006, FLAC (image+.cue), lossless

 

Создавать темы 28-Июн-2014 02:41

Powersurge ~ Eye Of The Storm- Жанр: Power Metal
Носитель: CD
Год издания: 2006
Издатель (лейбл): Battle Cry Records
Номер по каталогу: BC 020
Страна: United States
Аудиокодек: FLAC (*.flac)
Тип рипа: image+.cue
Битрейт аудио: lossless
Продолжительность: 01:13:54
Источник (релизер): spiralarch (спасибо)
Наличие сканов в содержимом раздачи: да
Треклист:
01. Targeted for Termination 03:48
02. The Bus 03:36
03. Death 05:57
04. Club Aftermath 03:42
05. The Spins 03:16
06. Rat Racing 04:21
07. Drunk and Disorderly 04:19
08. Who Is Lord 03:53
09. Wrecking Crew 02:47
10. Push You 05:04
11. Lightening 03:17
12. Life's a Bitch 04:05
13. Eye of the Storm 04:15
14. Busted 03:55
15. The Stalk 02:37
16. Wholesome Americans 03:35
17. Tear Up the Pavement 04:06
18. Wall of Power 03:05
19. Burning Revenge 04:18-

Лог создания рипа

Exact Audio Copy V1.0 beta 3 from 29. August 2011
EAC extraction logfile from 20. June 2014, 20:01
Powersurge / Eye Of The Storm
Used drive : Optiarc DVD RW AD-7240S Adapter: 2 ID: 0
Read mode : SecureUtilize accurate stream : YesDefeat audio cache : YesMake use of C2 pointers : No
Read offset correction : 48Overread into Lead-In and Lead-Out : NoFill up missing offset samples with silence : YesDelete leading and trailing silent blocks : NoNull samples used in CRC calculations : YesUsed interface : Native Win32 interface for Win NT & 2000
Used output format : Internal WAV RoutinesSample format : 44.100 Hz; 16 Bit; Stereo
TOC of the extracted CD
Track | Start | Length | Start sector | End sector --------------------------------------------------------- 1 | 0:00.00 | 3:47.33 | 0 | 17057 2 | 3:47.33 | 3:35.53 | 17058 | 33235 3 | 7:23.11 | 5:57.07 | 33236 | 60017 4 | 13:20.18 | 3:41.44 | 60018 | 76636 5 | 17:01.62 | 3:16.07 | 76637 | 91343 6 | 20:17.69 | 4:21.16 | 91344 | 110934 7 | 24:39.10 | 4:19.22 | 110935 | 130381 8 | 28:58.32 | 3:53.26 | 130382 | 147882 9 | 32:51.58 | 2:46.52 | 147883 | 160384 10 | 35:38.35 | 5:04.15 | 160385 | 183199 11 | 40:42.50 | 3:16.51 | 183200 | 197950 12 | 43:59.26 | 4:04.36 | 197951 | 216286 13 | 48:03.62 | 4:14.38 | 216287 | 235374 14 | 52:18.25 | 3:54.60 | 235375 | 252984 15 | 56:13.10 | 2:36.64 | 252985 | 264748 16 | 58:49.74 | 3:34.39 | 264749 | 280837 17 | 62:24.38 | 4:06.22 | 280838 | 299309 18 | 66:30.60 | 3:05.00 | 299310 | 313184 19 | 69:35.60 | 4:17.74 | 313185 | 332533
Range status and errors
Selected range
Filename D:\spiralarch\Powersurge - Eye Of The Storm.wav
Peak level 96.6 % Extraction speed 4.3 X Range quality 100.0 % Test CRC A802E20D Copy CRC A802E20D Copy OK
No errors occurred
AccurateRip summary
Track 1 accurately ripped (confidence 1) [DE97ABDB] (AR v1)Track 2 accurately ripped (confidence 1) [8D22DEC3] (AR v1)Track 3 accurately ripped (confidence 1) [46B3AEE7] (AR v1)Track 4 accurately ripped (confidence 1) [97C47711] (AR v1)Track 5 accurately ripped (confidence 1) [3F3CC198] (AR v1)Track 6 accurately ripped (confidence 1) [EC826078] (AR v1)Track 7 accurately ripped (confidence 1) [ED59BC54] (AR v1)Track 8 accurately ripped (confidence 1) [BF0F8A38] (AR v1)Track 9 accurately ripped (confidence 1) [375B31FE] (AR v1)Track 10 cannot be verified as accurate (confidence 1) [8E55B04F], AccurateRip returned [0C1B04A1] (AR v2)Track 11 accurately ripped (confidence 1) [2A94E03F] (AR v1)Track 12 accurately ripped (confidence 1) [C71959D6] (AR v1)Track 13 accurately ripped (confidence 1) [980C9D65] (AR v1)Track 14 accurately ripped (confidence 1) [94C2A3C4] (AR v1)Track 15 accurately ripped (confidence 1) [5D3451F2] (AR v1)Track 16 accurately ripped (confidence 1) [32665043] (AR v1)Track 17 accurately ripped (confidence 1) [BADD5F51] (AR v1)Track 18 accurately ripped (confidence 1) [09594584] (AR v1)Track 19 accurately ripped (confidence 1) [A93715FB] (AR v1)
18 track(s) accurately ripped 1 track(s) could not be verified as accurate
Some tracks could not be verified as accurate
End of status report
---- CUETools DB Plugin V2.1.4
[CTDB TOCID: ddQ0UEPH_jALGQ9zNRNT3xmpgJA-] foundSubmit result: already submittedTrack | CTDB Status 1 | (2/2) Accurately ripped 2 | (2/2) Accurately ripped 3 | (2/2) Accurately ripped 4 | (2/2) Accurately ripped 5 | (2/2) Accurately ripped 6 | (2/2) Accurately ripped 7 | (2/2) Accurately ripped 8 | (2/2) Accurately ripped 9 | (2/2) Accurately ripped 10 | (1/2) Accurately ripped, or (1/2) differs in 60 samples @04:13:13 11 | (2/2) Accurately ripped 12 | (2/2) Accurately ripped 13 | (2/2) Accurately ripped 14 | (2/2) Accurately ripped 15 | (2/2) Accurately ripped 16 | (2/2) Accurately ripped 17 | (2/2) Accurately ripped 18 | (2/2) Accurately ripped 19 | (2/2) Accurately ripped
==== Log checksum 9CA8C342B81321D6C612035A19B1538AC89FF67A6B9C01B827F7598D11F5F6C9 ====

Об исполнителе (группе)

http://www.metal-archives.com/bands/Powersurge/1576

Состав

James Marra - lead vocals
Todd Boese - guitars and backing vocals
Eddie Rice - guitars
Todd Dyer - bass and backing vocals
Hal Loo - drums (1985-1988)
Rudy Goryance - drums (1989-1992)
-
Яндекс.Метрика
Рейтинг@Mail.ru