План побега / Escape Plan (Микаэль Хофстрём / Mikael Håfström) [2013 г., Боевик, триллер, детектив, HDRip] AVO (Гаврилов, Володарский, Горчаков) + original (Eng)

 

Создавать темы 27-Июн-2014 06:21

-План побега / Escape Plan-- Год выпуска: 2013
Производство: США, Atmosphere Entertainment
Жанр: Боевик, триллер, детектив
Продолжительность: 01:55:36-Перевод 1: Авторский (одноголосый, закадровый) Андрей Гаврилов
Перевод 2: Авторский (одноголосый, закадровый) Леонид Володарский
Перевод 3: Авторский (одноголосый, закадровый) Василий Горчаков-Оригинальный аудиопоток: английский
Субтитры: отсутствуют
Режиссер: Микаэль Хофстрём / Mikael Håfström
В ролях: Сильвестр Сталлоне, Арнольд Шварценеггер, Джеймс Кэвизел, Фифти Сент, Винни Джонс, Винсент Д`Онофрио, Эми Райан, Сэм Нилл, Каитриона Бэлфи, Фаран Таир--Описание: Один из самых выдающихся мировых специалистов по системам безопасности соглашается на последнюю рисковую операцию: сбежать из суперсекретной высокотехнологичной тюрьмы, которую называют «Гробницей». Преданный Рэй Бреслин вынужден прибегнуть к помощи напарника — заключенного Эмиля Ротмайера, чтобы разработать отчаянный и практически неосуществимый план побега из самой защищенной тюрьмы в мире!-- - -Качество видео: HDRip
Контейнер: AVI
Видео кодек: XviD
Аудио кодек: AC3
Видео: 720x304 (2.37:1), 23.976 fps, XviD MPEG-4 ~1645 kbps avg, 0.31 bit/pixel-Аудио : 48 kHz, AC3 Dolby Digital, 3/2 (L,C,R,l,r) + LFE ch, ~448 kbps - Гаврилов
Аудио #2: 48 kHz, AC3 Dolby Digital, 3/2 (L,C,R,l,r) + LFE ch, ~448 kbps - Володарский
Аудио #3: 48 kHz, AC3 Dolby Digital, 3/2 (L,C,R,l,r) + LFE ch, ~448 kbps - Горчаков
Аудио #4: 48 kHz, AC3 Dolby Digital, 3/2 (L,C,R,l,r) + LFE ch, ~448 kbps - оригинал (английский)-Торрент обновлен 26.06.2014. Добавлены переводы Володарского и Горчакова. Приятного просмотра!-

Доп. информация

РИП
За исходник BDRip 720p спасибо Koms80 (ХДТрэкер)
За перевод Гаврилова спасибо пользователям Клуба переводов новинок и классики у Гаврилова.
Denis2251, Wolf_Larsen, chef&chef, shtift, rydanes, Pain_70, Tehnar, Xerman13, carter64, feldeger, SavineX, Letyoha3, _MyxAmoP_ , fly32, milocerd0v, Диммон, dunhill200, edsz, Loki, Guyver , nimph, KpucTo161, v111o, -Джосс-, foxlight, Role, Luka69, Brown15, therox, saenwert , Rolly Tyler, Hattori Hanzo, audiolubitel, Gross1978, GaryH, dwser, Jiraya87, Iron Man, ZeRoNe, Shumway, mamachucha66, Aladdin, denis_mgn_1987, DrCrane.
За перевод Володарского спасибо пользователям форума е180: Daniel Rock, Wolf_Larsen, foxlight, xerman13, Iceman, Letyoha3, Nadoelo, uchitel538, SavineX78, User, denis_mgn_1987, maximus10-99, zeleniy, Hattori Hanzo, vik19662007, Диммон, ZeDOK, MyxAmoP, carnivale, kinobbk, dimavirovec, nimph, Ochkarik1, luka69, olegsoleg, Loki1982, furria62, Werewolf77, audiolubitel, каак, vavana, tide, dark1982, bla_, kondratzx, Nick, jorn2, masta, Savely, DreamWarrior, Andrey_Tula, Lee Ray, Slimka, Kastro, _shurik_, Tio, dir, SJC, oleg-k, Водолей, Марлон, ilsasss, Gross1978, xxxcity, Серый, Gouzer, Alex, ARTYq, GansAn, lotasfan, vit, anton966, Skoped, Denis2251, Евгений_1, karantin66, idalgo, STONECOLD, Pumamen, Consul, Dr.Crane, muha, DeASS, фёдор александрович.
За перевод Горчакова спасибо пользователям форума е180: Daniel Rock, Wolf_Larsen, El Capitain, xerman13, Nadoelo, uchitel538, SavineX78, denis_mgn_1987, I_Am_Hell, maximus10-99, zeleniy, ZeDOK, kinobbk, MyxAmoP, kiruxa-k, saigons, nimph, Gennady 2013, Alex70, Ochkarik1, luka69, olegsoleg, Loki1982, KINOGON, furria62, Werewolf77, Марлон, audiolubitel, каак, vavana, tide, bla_, kondratzx, Nick, jorn2, Диммон, masta, Andrey_Tula, Slimka, Kastro, _shurik_, Tio, dir, magvai, SJC, Водолей, omen_dk, Gross1978, xxxcity, axl-dr, User, Серый, Gouzer, Alex, ARTYq, carnivale, A I, GansAn, lotasfan, vit, Skoped, Евгений_1, Партизан, 2vova2, Savely, idalgo, STONECOLD, Pumamen, Consul, Dr.Crane, muha, Hattori Hanzo.

Кванты

I frames: 2788 frames, size = 36814/102638395, quants = 2 / 2.00 / 2
P frames: 84417 frames, size = 10868/917457732, quants = 2 / 2.00 / 2
B frames: 79087 frames, size = 5016/396757442, quants = 2 / 2.00 / 2

Media Info

General
Complete name : G:\На пиратку\! не розданные\Escape.Plan.2013.HDRip.Gavrilov.Volodarsky.Gorchakov.eng_byGross.avi
Format : AVI
Format/Info : Audio Video Interleave
Format profile : OpenDML
File size : 2.79 GiB
Duration : 1h 55mn
Overall bit rate : 3 453 Kbps
Writing application : VirtualDubMod 1.5.10.3 | www.virtualdub-fr.org || (build 2550/release)
Writing library : VirtualDubMod build 2550/release
Video
ID : 0
Format : MPEG-4 Visual
Format profile : Advanced [email protected]
Format settings, BVOP : Yes
Format settings, QPel : No
Format settings, GMC : No warppoints
Format settings, Matrix : Custom
Codec ID : XVID
Codec ID/Hint : XviD
Duration : 1h 55mn
Bit rate : 1 634 Kbps
Width : 720 pixels
Height : 304 pixels
Display aspect ratio : 2.35:1
Frame rate : 23.976 fps
Color space : YUV
Chroma subsampling : 4:2:0
Bit depth : 8 bits
Scan type : Progressive
Compression mode : Lossy
Bits/(Pixel*Frame) : 0.311
Stream size : 1.32 GiB (47%)
Writing library : XviD 73
Audio #1
ID : 1
Format : AC-3
Format/Info : Audio Coding 3
Mode extension : CM (complete main)
Format settings, Endianness : Big
Codec ID : 2000
Duration : 1h 55mn
Bit rate mode : Constant
Bit rate : 448 Kbps
Channel count : 6 channels
Channel positions : Front: L C R, Side: L R, LFE
Sampling rate : 48.0 KHz
Bit depth : 16 bits
Compression mode : Lossy
Stream size : 370 MiB (13%)
Alignment : Split accross interleaves
Interleave, duration : 42 ms (1.00 video frame)
Interleave, preload duration : 500 ms
Audio #2
ID : 2
Format : AC-3
Format/Info : Audio Coding 3
Mode extension : CM (complete main)
Format settings, Endianness : Big
Codec ID : 2000
Duration : 1h 55mn
Bit rate mode : Constant
Bit rate : 448 Kbps
Channel count : 6 channels
Channel positions : Front: L C R, Side: L R, LFE
Sampling rate : 48.0 KHz
Bit depth : 16 bits
Compression mode : Lossy
Stream size : 370 MiB (13%)
Alignment : Split accross interleaves
Interleave, duration : 42 ms (1.00 video frame)
Interleave, preload duration : 500 ms
Audio #3
ID : 3
Format : AC-3
Format/Info : Audio Coding 3
Mode extension : CM (complete main)
Format settings, Endianness : Big
Codec ID : 2000
Duration : 1h 55mn
Bit rate mode : Constant
Bit rate : 448 Kbps
Channel count : 6 channels
Channel positions : Front: L C R, Side: L R, LFE
Sampling rate : 48.0 KHz
Bit depth : 16 bits
Compression mode : Lossy
Stream size : 370 MiB (13%)
Alignment : Split accross interleaves
Interleave, duration : 42 ms (1.00 video frame)
Interleave, preload duration : 500 ms
Audio #4
ID : 4
Format : AC-3
Format/Info : Audio Coding 3
Mode extension : CM (complete main)
Format settings, Endianness : Big
Codec ID : 2000
Duration : 1h 55mn
Bit rate mode : Constant
Bit rate : 448 Kbps
Channel count : 6 channels
Channel positions : Front: L C R, Side: L R, LFE
Sampling rate : 48.0 KHz
Bit depth : 16 bits
Compression mode : Lossy
Stream size : 370 MiB (13%)
Alignment : Split accross interleaves
Interleave, duration : 42 ms (1.00 video frame)
Interleave, preload duration : 500 ms

Скриншоты

Яндекс.Метрика
Рейтинг@Mail.ru