300 спартанцев: Расцвет империи / 300: Rise of an Empire (Ноам Мурро / Noam Murro) [2014 г., боевик, драма, военный, HDRip] Dub (Лицензия) «CP Дистрибуция»

 

Создавать темы 27-Июн-2014 06:19

-300 спартанцев: Расцвет империи / 300: Rise of an Empire--«Смерти вопреки» Производство: США, Warner Bros., Legendary Pictures, Cruel & Unusual Films, Atmosphere Entertainment MM, Hollywood Gang Productions, Nimar Studios
Год выпуска: 2014 г.
Жанр: боевик, драма, военный
Продолжительность: 01:42:46
Мировая премьера: 5 марта 2014
Российская премьера: 6 марта 2014, «Каро-Премьер»
Дата выхода DVD: 19 июня 2014, «CP Дистрибуция»
Дата выхода Blu-Ray: 19 июня 2014, «CP Дистрибуция»
Перевод: Профессиональный (полное дублирование) [Лицензия]
Режиссер: Ноам Мурро / Noam Murro-В ролях: Салливан Степлтон, Лина Хиди, Ева Грин, Дэвид Уэнэм, Каллэн Мулвей, Родриго Санторо, Джек О'Коннелл, Ганс Мэтисон, Кэйтлин Кармайкл, Скотт Берн-Описание: После победы над царем Леонидом персидская армия во главе с Ксерксом движется на юг. На её пути оказывается флот Афин под руководством адмирала Фемистокла. Силы противников не равны, и Фемистокл вынужден вступить в союз с заклятым врагом афинского государства Спартой. Только объединившись у враждующих полисов-государств есть шанс что-то противопоставить могущественному Ксерксу.-
Качество видео: HDRip
Контейнер: AVI
Видео кодек: XviD
Аудио кодек: AC3
Видео: XviD, 1562 Кбит/с, 720x304 (2.35:1), 23.976 fps, 0.298 bit / pix
Аудио: 48 kHz, AC3, 6 ch, 448 Кбит/с [Dub]
Cубтитры: отсутствуют

Media Info

General
Complete name : W:\300_Rascvet_imperii_2014_HDRip.avi
Format : AVI
Format/Info : Audio Video Interleave
File size : 1.45 GiB
Duration : 1h 42mn
Overall bit rate : 2 019 Kbps
Writing application : VirtualDubMod 1.5.10.2 (build 2540/release)
Writing library : VirtualDubMod build 2540/release
Video
ID : 0
Format : MPEG-4 Visual
Format profile : Advanced [email protected]
Format settings, BVOP : Yes
Format settings, QPel : No
Format settings, GMC : No warppoints
Format settings, Matrix : Custom
Codec ID : XVID
Codec ID/Hint : XviD
Duration : 1h 42mn
Bit rate : 1 562 Kbps
Width : 720 pixels
Height : 304 pixels
Display aspect ratio : 2.35:1
Frame rate : 23.976 fps
Color space : YUV
Chroma subsampling : 4:2:0
Bit depth : 8 bits
Scan type : Progressive
Bits/(Pixel*Frame) : 0.298
Stream size : 1.12 GiB (77%)
Writing library : XviD 73
Audio
ID : 1
Format : AC-3
Format/Info : Audio Coding 3
Mode extension : CM (complete main)
Codec ID : 2000
Duration : 1h 42mn
Bit rate mode : Constant
Bit rate : 448 Kbps
Channel(s) : 6 channels
Channel positions : Front: L C R, Side: L R, LFE
Sampling rate : 48.0 KHz
Bit depth : 16 bits
Stream size : 329 MiB (22%)
Alignment : Split accross interleaves
Interleave, duration : 42 ms (1.00 video frame)
Interleave, preload duration : 500 ms

Скриншоты

Яндекс.Метрика
Рейтинг@Mail.ru