(Melodic Death/Doom Metal) Swallow the Sun - Discography (2003-2012) 9CD, FLAC (image+.cue), lossless

 

Создавать темы 27-Июн-2014 06:10

Swallow the Sun - DiscographyСтрана: Finland
Жанр: Melodic Death/Doom Metal
Формат: FLAC (*.flac)
Тип рипа: image+.cue
Битрейт аудио: lossless
Источник: Original CD's
Сканы: да
-

2003 - The Morning Never Came

Треклист:
01. Through Her Silvery Body (08:42)
02. Deadly Nightshade (05:50)
03. Out of This Gloomy Light (05:39)
04. Swallow (Horror Pt.1) (05:25)
05. Silence of the Womb (06:52)
06. Hold This Woe (08:06)
07. Under the Waves (06:48)
08. The Morning Never Came (09:21)
total time 0:56:32
Доп. информация:
Firebox [FIRECD010]

Отчёт ЕАС

Exact Audio Copy V0.99 prebeta 4 from 23. January 2008
EAC extraction logfile from 21. December 2010, 23:55
Swallow the Sun / The Morning Never Came
Used drive : ASUS DRW-1612BL Adapter: 0 ID: 0
Read mode : SecureUtilize accurate stream : YesDefeat audio cache : YesMake use of C2 pointers : No
Read offset correction : 6Overread into Lead-In and Lead-Out : NoFill up missing offset samples with silence : YesDelete leading and trailing silent blocks : NoNull samples used in CRC calculations : YesUsed interface : Installed external ASPI interface
Used output format : User Defined EncoderSelected bitrate : 768 kBit/sQuality : HighAdd ID3 tag : NoCommand line compressor : C:\Program Files (x86)\Exact Audio Copy\Flac\flac.exeAdditional command line options : -6 -V %s
TOC of the extracted CD
Track | Start | Length | Start sector | End sector --------------------------------------------------------- 1 | 0:00.00 | 8:40.40 | 0 | 39039 2 | 8:40.40 | 5:48.67 | 39040 | 65206 3 | 14:29.32 | 5:37.51 | 65207 | 90532 4 | 20:07.08 | 5:23.35 | 90533 | 114792 5 | 25:30.43 | 6:50.53 | 114793 | 145595 6 | 32:21.21 | 8:04.53 | 145596 | 181948 7 | 40:25.74 | 6:46.68 | 181949 | 212466 8 | 47:12.67 | 9:19.16 | 212467 | 254407
Range status and errors
Selected range
Filename E:\My Doom\Swallow the Sun - The Morning Never Came.wav
Peak level 99.9 % Range quality 100.0 % Test CRC 741FC2CD Copy CRC 741FC2CD Copy OK
No errors occurred
AccurateRip summary
Track 1 accurately ripped (confidence 16) [65AA372A]Track 2 accurately ripped (confidence 15) [75355C47]Track 3 accurately ripped (confidence 14) [33C07C1B]Track 4 accurately ripped (confidence 15) [3F23FD9B]Track 5 accurately ripped (confidence 15) [1A28F867]Track 6 accurately ripped (confidence 14) [2C63A28D]Track 7 accurately ripped (confidence 14) [203B175E]Track 8 accurately ripped (confidence 14) [651CE263]
All tracks accurately ripped
End of status report

2003/2005 - The Morning Never Came (USA Edition)

Треклист:
01. Through Her Silvery Body (8:43)
02. Deadly Nightshade (5:51)
03. Out of this Gloomy Light (5:40)
04. Swallow (5:25)
05. Silence of the Womb (6:53)
06. Hold this Woe (8:07)
07. Under the Waves (6:49)
08. The Morning Never Came (9:21)
09. Solitude (bonus track) (6:24)
total time 1:03:12
Доп. информация:
Olympic Recordings [OLY 0243-2]

Отчёт ЕАС

Exact Audio Copy V1.0 beta 3 from 29. August 2011
EAC extraction logfile from 27. June 2014, 3:18
Swallow The Sun / The Morning Never Came (USA release)
Used drive : ASUS DRW-1612BL Adapter: 2 ID: 0
Read mode : SecureUtilize accurate stream : YesDefeat audio cache : YesMake use of C2 pointers : No
Read offset correction : 6Overread into Lead-In and Lead-Out : NoFill up missing offset samples with silence : YesDelete leading and trailing silent blocks : NoNull samples used in CRC calculations : YesUsed interface : Installed external ASPI interface
Used output format : User Defined EncoderSelected bitrate : 128 kBit/sQuality : HighAdd ID3 tag : NoCommand line compressor : C:\Program Files\EAC\Exact Audio Copy\Flac\flac.exeAdditional command line options : -V -8 -T "Date=%year%" -T "Genre=%genre%" %source%
TOC of the extracted CD
Track | Start | Length | Start sector | End sector --------------------------------------------------------- 1 | 0:00.00 | 8:42.42 | 0 | 39191 2 | 8:42.42 | 5:50.69 | 39192 | 65510 3 | 14:33.36 | 5:39.53 | 65511 | 90988 4 | 20:13.14 | 5:25.37 | 90989 | 115400 5 | 25:38.51 | 6:52.55 | 115401 | 146355 6 | 32:31.31 | 8:06.55 | 146356 | 182860 7 | 40:38.11 | 6:48.70 | 182861 | 213530 8 | 47:27.06 | 9:21.18 | 213531 | 255623 9 | 56:48.24 | 6:23.55 | 255624 | 284403
Range status and errors
Selected range
Filename C:\darkbrides\Swallow The Sun - The Morning Never Came (USA release).wav
Peak level 99.9 % Extraction speed 9.6 X Range quality 100.0 % Test CRC BB6A737F Copy CRC BB6A737F Copy OK
No errors occurred
AccurateRip summary
Track 1 accurately ripped (confidence 3) [BCC37907] (AR v2)Track 2 accurately ripped (confidence 3) [F0B476C2] (AR v2)Track 3 accurately ripped (confidence 3) [E8966378] (AR v2)Track 4 accurately ripped (confidence 3) [E5D0EB17] (AR v2)Track 5 accurately ripped (confidence 3) [B7868DA8] (AR v2)Track 6 accurately ripped (confidence 3) [50690614] (AR v2)Track 7 accurately ripped (confidence 3) [58D2ECA3] (AR v2)Track 8 accurately ripped (confidence 3) [621FD14B] (AR v2)Track 9 accurately ripped (confidence 3) [E45AF8F9] (AR v2)
All tracks accurately ripped
End of status report
==== Log checksum D9B5C6B369D5F844A44827B29C37FCDC192976D6E556316BCBDD4FEFD4642D43 ====

2005 - Forgive Her... (Single)

Треклист:
01. Forgive Her... (09:02)
02. Solitude (Candlemass cover) (06:04)
total time 0:15:06
Доп. информация:
Firebox [Firecds026]

Отчёт ЕАС

Exact Audio Copy V0.99 prebeta 4 from 23. January 2008
EAC extraction logfile from 22. December 2010, 0:03
Swallow the Sun / Forgive Her... [CDS]
Used drive : ASUS DRW-1612BL Adapter: 0 ID: 0
Read mode : SecureUtilize accurate stream : YesDefeat audio cache : YesMake use of C2 pointers : No
Read offset correction : 6Overread into Lead-In and Lead-Out : NoFill up missing offset samples with silence : YesDelete leading and trailing silent blocks : NoNull samples used in CRC calculations : YesUsed interface : Installed external ASPI interface
Used output format : User Defined EncoderSelected bitrate : 768 kBit/sQuality : HighAdd ID3 tag : NoCommand line compressor : C:\Program Files (x86)\Exact Audio Copy\Flac\flac.exeAdditional command line options : -6 -V %s
TOC of the extracted CD
Track | Start | Length | Start sector | End sector --------------------------------------------------------- 1 | 0:00.00 | 9:02.12 | 0 | 40661 2 | 9:02.12 | 6:04.25 | 40662 | 67986
Range status and errors
Selected range
Filename E:\My Doom\Swallow the Sun - Forgive Her... [CDS].wav
Peak level 98.4 % Range quality 100.0 % Test CRC 6658CF83 Copy CRC 6658CF83 Copy OK
No errors occurred
AccurateRip summary
Track 1 accurately ripped (confidence 7) [4AF4EE9F]Track 2 accurately ripped (confidence 8) [F816E4D9]
All tracks accurately ripped
End of status report

2005 - Ghosts of Loss

Треклист:
01. The Giant (11:55)
02. Descending Winters (06:11)
03. Psychopath's Lair (05:51)
04. Forgive Her (09:02)
05. Fragile (07:12)
06. Ghost of Laura Palmer (08:07)
07. Gloom, Beauty and Despair (08:45)
08. The Ship (08:55)
total time: 1:06:00
Доп. информация:
Firebox [FIRECD027]

Отчет ЕАС

Exact Audio Copy V0.99 prebeta 4 from 23. January 2008
EAC extraction logfile from 22. December 2010, 0:20
Swallow the Sun / Ghosts of Loss
Used drive : ASUS DRW-1612BL Adapter: 0 ID: 0
Read mode : SecureUtilize accurate stream : YesDefeat audio cache : YesMake use of C2 pointers : No
Read offset correction : 6Overread into Lead-In and Lead-Out : NoFill up missing offset samples with silence : YesDelete leading and trailing silent blocks : NoNull samples used in CRC calculations : YesUsed interface : Installed external ASPI interface
Used output format : User Defined EncoderSelected bitrate : 768 kBit/sQuality : HighAdd ID3 tag : NoCommand line compressor : C:\Program Files (x86)\Exact Audio Copy\Flac\flac.exeAdditional command line options : -6 -V %s
TOC of the extracted CD
Track | Start | Length | Start sector | End sector --------------------------------------------------------- 1 | 0:00.00 | 11:55.57 | 0 | 53681 2 | 11:55.57 | 6:11.00 | 53682 | 81506 3 | 18:06.57 | 5:52.11 | 81507 | 107917 4 | 23:58.68 | 8:59.72 | 107918 | 148414 5 | 32:58.65 | 7:14.20 | 148415 | 180984 6 | 40:13.10 | 8:06.64 | 180985 | 217498 7 | 48:19.74 | 8:45.06 | 217499 | 256879 8 | 57:05.05 | 8:54.49 | 256880 | 296978
Range status and errors
Selected range
Filename E:\My Doom\Swallow the Sun - Ghosts of Loss.wav
Peak level 100.0 % Range quality 100.0 % Test CRC 5388E2C7 Copy CRC 5388E2C7 Copy OK
No errors occurred
AccurateRip summary
Track 1 accurately ripped (confidence 24) [4B2CE15C]Track 2 accurately ripped (confidence 24) [C9155492]Track 3 accurately ripped (confidence 24) [FE113152]Track 4 accurately ripped (confidence 24) [10B7DDAB]Track 5 accurately ripped (confidence 24) [9FCC355C]Track 6 accurately ripped (confidence 24) [E5A88CC6]Track 7 accurately ripped (confidence 24) [506511F9]Track 8 accurately ripped (confidence 24) [98CA9C45]
All tracks accurately ripped
End of status report

2007 - Don't Fall Asleep (Single)

Треклист:
01. Don't Fall Asleep (edit) (4:56)
02. These Low Lands (5:54)
03. Don't Fall Asleep (7:41)
total time 0:18:32
Доп. информация:
Spinefarm Records [SPI282CD 171700-2]

Отчёт ЕАС

Exact Audio Copy V0.99 prebeta 4 from 23. January 2008
EAC extraction logfile from 21. December 2010, 22:38
Swallow the Sun / Don't Fall Asleep
Used drive : ASUS DRW-1612BL Adapter: 0 ID: 0
Read mode : SecureUtilize accurate stream : YesDefeat audio cache : YesMake use of C2 pointers : No
Read offset correction : 6Overread into Lead-In and Lead-Out : NoFill up missing offset samples with silence : YesDelete leading and trailing silent blocks : NoNull samples used in CRC calculations : YesUsed interface : Installed external ASPI interface
Used output format : User Defined EncoderSelected bitrate : 768 kBit/sQuality : HighAdd ID3 tag : NoCommand line compressor : C:\Program Files (x86)\Exact Audio Copy\Flac\flac.exeAdditional command line options : -6 -V %s
TOC of the extracted CD
Track | Start | Length | Start sector | End sector --------------------------------------------------------- 1 | 0:00.00 | 4:55.71 | 0 | 22195 2 | 4:55.71 | 5:54.19 | 22196 | 48764 3 | 10:50.15 | 7:41.26 | 48765 | 83365
Range status and errors
Selected range
Filename E:\My Doom\Swallow the Sun - Don't Fall Asleep.wav
Peak level 97.7 % Range quality 100.0 % Test CRC 9CD20459 Copy CRC 9CD20459 Copy OK
No errors occurred
AccurateRip summary
Track 1 accurately ripped (confidence 1) [3A7FDC6B]Track 2 accurately ripped (confidence 1) [C2951E63]Track 3 accurately ripped (confidence 1) [0EE38744]
All tracks accurately ripped
End of status report

2007 - Hope

Треклист:
01. Hope (7:54)
02. These Hours of Despair (5:58)
03. The Justice of Suffering (6:26)
04. Don't Fall Asleep (7:42)
05. Too Cold for Tears (9:16)
06. The Empty Skies (7:17)
07. No Light, No Hope (4:43)
08. Doomed to Walk the Earth (8:30)
total time: 0:57:47
Доп. информация:
Spinefarm Records [SPI272CD - 171340-3]

Отчёт ЕАС

Exact Audio Copy V1.0 beta 3 from 29. August 2011
EAC extraction logfile from 27. June 2014, 3:44
Swallow The Sun / Hope
Used drive : ASUS DRW-1612BL Adapter: 2 ID: 0
Read mode : SecureUtilize accurate stream : YesDefeat audio cache : YesMake use of C2 pointers : No
Read offset correction : 6Overread into Lead-In and Lead-Out : NoFill up missing offset samples with silence : YesDelete leading and trailing silent blocks : NoNull samples used in CRC calculations : YesUsed interface : Installed external ASPI interface
Used output format : User Defined EncoderSelected bitrate : 128 kBit/sQuality : HighAdd ID3 tag : NoCommand line compressor : C:\Program Files\EAC\Exact Audio Copy\Flac\flac.exeAdditional command line options : -V -8 -T "Date=%year%" -T "Genre=%genre%" %source%
TOC of the extracted CD
Track | Start | Length | Start sector | End sector --------------------------------------------------------- 1 | 0:00.00 | 7:53.73 | 0 | 35547 2 | 7:53.73 | 5:58.21 | 35548 | 62418 3 | 13:52.19 | 6:26.15 | 62419 | 91383 4 | 20:18.34 | 7:41.73 | 91384 | 126031 5 | 28:00.32 | 9:16.06 | 126032 | 167737 6 | 37:16.38 | 7:17.06 | 167738 | 200518 7 | 44:33.44 | 4:43.36 | 200519 | 221779 8 | 49:17.05 | 8:30.04 | 221780 | 260033
Range status and errors
Selected range
Filename C:\darkbrides\Swallow The Sun - Hope.wav
Peak level 97.7 % Extraction speed 8.8 X Range quality 100.0 % Test CRC 60D819CD Copy CRC 60D819CD Copy OK
No errors occurred
AccurateRip summary
Track 1 accurately ripped (confidence 7) [85CEF2E5] (AR v2)Track 2 accurately ripped (confidence 7) [1AFE9825] (AR v2)Track 3 accurately ripped (confidence 7) [72824B10] (AR v2)Track 4 accurately ripped (confidence 7) [EBBE8BA6] (AR v2)Track 5 accurately ripped (confidence 7) [2E549C3E] (AR v2)Track 6 accurately ripped (confidence 7) [EF345863] (AR v2)Track 7 accurately ripped (confidence 7) [0B29E702] (AR v2)Track 8 accurately ripped (confidence 7) [45664F74] (AR v2)
All tracks accurately ripped
End of status report
==== Log checksum 158896773D43C755FE220F4D4F76FA221794446072D60ECDB29EA0A64DD0FF08 ====

2008 - Plague of Butterflies (EP)

Треклист:
01. Plague of Butterflies (34:43)
Chapters:
- Losing the Sunsets
- Plague of Butterflies
- Evael 10:00
02. Through Her Silvery Body (8:02)*
03. Out of this Gloomy Light (5:35)*
04. Swallow (5:28)*
05. Under the Waves (6:37)*
total time 1:00:23
Доп. информация:
Spinefarm Records [SPI331CD / 176407-1]

Info

* - bonus tracks: Demo "Out of this Gloomy Light" (2003)

Отчёт ЕАС

Exact Audio Copy V1.0 beta 3 from 29. August 2011
EAC extraction logfile from 27. June 2014, 4:02
Swallow The Sun / Plague Of Butterflies
Used drive : ASUS DRW-1612BL Adapter: 2 ID: 0
Read mode : SecureUtilize accurate stream : YesDefeat audio cache : YesMake use of C2 pointers : No
Read offset correction : 6Overread into Lead-In and Lead-Out : NoFill up missing offset samples with silence : YesDelete leading and trailing silent blocks : NoNull samples used in CRC calculations : YesUsed interface : Installed external ASPI interface
Used output format : User Defined EncoderSelected bitrate : 128 kBit/sQuality : HighAdd ID3 tag : NoCommand line compressor : C:\Program Files\EAC\Exact Audio Copy\Flac\flac.exeAdditional command line options : -V -8 -T "Date=%year%" -T "Genre=%genre%" %source%
TOC of the extracted CD
Track | Start | Length | Start sector | End sector --------------------------------------------------------- 1 | 0:00.00 | 34:42.39 | 0 | 156188 2 | 34:42.39 | 8:01.46 | 156189 | 192309 3 | 42:44.10 | 5:34.47 | 192310 | 217406 4 | 48:18.57 | 5:27.40 | 217407 | 241971 5 | 53:46.22 | 6:36.49 | 241972 | 271720
Range status and errors
Selected range
Filename C:\darkbrides\Swallow The Sun - Plague Of Butterflies.wav
Peak level 97.7 % Extraction speed 8.9 X Range quality 100.0 % Test CRC EFF265F8 Copy CRC EFF265F8 Copy OK
No errors occurred
AccurateRip summary
Track 1 accurately ripped (confidence 5) [1A34C1C7] (AR v2)Track 2 accurately ripped (confidence 5) [EBEF5CE5] (AR v2)Track 3 accurately ripped (confidence 5) [E3D01DC6] (AR v2)Track 4 accurately ripped (confidence 5) [3CD08E09] (AR v2)Track 5 accurately ripped (confidence 5) [2BAFE3A1] (AR v2)
All tracks accurately ripped
End of status report
==== Log checksum A9F9566D8C69358F8CA1223B24DB6EACD43E0022EDE76C5DB09FA4913CB2AA12 ====

2009 - New Moon

Треклист:
01. These Woods Breathe Evil (6:44)
02. Falling World (5:09)
03. Sleepless Swans (7:24)
04. ...and Heavens Cried Blood (6:18)
05. Lights on the Lake (Horror pt. III) (7:46)
06. New Moon (5:00)
07. Servant of Sorrow (6:26)
08. Weight of the Dead (9:05)
total time 0:53:50
Доп. информация:
Spinefarm Records [SPI361CD 2715391]

Отчёт ЕАС

Exact Audio Copy V0.99 prebeta 4 from 23. January 2008
EAC extraction logfile from 21. December 2010, 22:54
Swallow the Sun / New Moon
Used drive : ASUS DRW-1612BL Adapter: 0 ID: 0
Read mode : SecureUtilize accurate stream : YesDefeat audio cache : YesMake use of C2 pointers : No
Read offset correction : 6Overread into Lead-In and Lead-Out : NoFill up missing offset samples with silence : YesDelete leading and trailing silent blocks : NoNull samples used in CRC calculations : YesUsed interface : Installed external ASPI interface
Used output format : User Defined EncoderSelected bitrate : 768 kBit/sQuality : HighAdd ID3 tag : NoCommand line compressor : C:\Program Files (x86)\Exact Audio Copy\Flac\flac.exeAdditional command line options : -6 -V %s
TOC of the extracted CD
Track | Start | Length | Start sector | End sector --------------------------------------------------------- 1 | 0:00.00 | 6:43.49 | 0 | 30273 2 | 6:43.49 | 5:08.65 | 30274 | 53438 3 | 11:52.39 | 7:23.45 | 53439 | 86708 4 | 19:16.09 | 6:17.60 | 86709 | 115043 5 | 25:33.69 | 7:45.48 | 115044 | 149966 6 | 33:19.42 | 5:00.05 | 149967 | 172471 7 | 38:19.47 | 6:25.38 | 172472 | 201384 8 | 44:45.10 | 9:04.66 | 201385 | 242250
Range status and errors
Selected range
Filename E:\My Doom\Swallow the Sun - New Moon.wav
Peak level 97.8 % Range quality 100.0 % Test CRC 2C6451B6 Copy CRC 2C6451B6 Copy OK
No errors occurred
AccurateRip summary
Track 1 accurately ripped (confidence 21) [188F47F3]Track 2 accurately ripped (confidence 21) [5DE6100D]Track 3 accurately ripped (confidence 20) [D078DD63]Track 4 accurately ripped (confidence 21) [B17B044C]Track 5 accurately ripped (confidence 21) [B88FB41C]Track 6 accurately ripped (confidence 21) [B6128365]Track 7 accurately ripped (confidence 21) [FA3CB282]Track 8 accurately ripped (confidence 21) [64DC760A]
All tracks accurately ripped
End of status report

2012 - Emerald Forest and the Blackbird

Треклист:
01. Emerald Forest and the Blackbird (9:58)
02. This Cut is the Deepest (5:20)
03. Hate, Lead the Way (6:14)
04. Cathedral Walls (6:48)
05. Hearts Wide Shut (5:55)
06. Silent Towers (4:01)
07. Labyrinth of London (Horror pt. IV) (8:29)
08. Of Death and Corruption (5:00)
09. April 14th (8:29)
10. Night Will Forgive Us (6:41)
total time 1:06:56
Доп. информация:
Spinefarm Records [SPI415CD / 2792110]

Отчёт ЕАС

Exact Audio Copy V1.0 beta 3 from 29. August 2011
EAC extraction logfile from 27. June 2014, 4:21
Swallow the Sun / Emerald Forest and the Blackbird
Used drive : ASUS DRW-1612BL Adapter: 2 ID: 0
Read mode : SecureUtilize accurate stream : YesDefeat audio cache : YesMake use of C2 pointers : No
Read offset correction : 6Overread into Lead-In and Lead-Out : NoFill up missing offset samples with silence : YesDelete leading and trailing silent blocks : NoNull samples used in CRC calculations : YesUsed interface : Installed external ASPI interface
Used output format : User Defined EncoderSelected bitrate : 128 kBit/sQuality : HighAdd ID3 tag : NoCommand line compressor : C:\Program Files\EAC\Exact Audio Copy\Flac\flac.exeAdditional command line options : -V -8 -T "Date=%year%" -T "Genre=%genre%" %source%
TOC of the extracted CD
Track | Start | Length | Start sector | End sector --------------------------------------------------------- 1 | 0:00.00 | 9:57.48 | 0 | 44822 2 | 9:57.48 | 5:20.33 | 44823 | 68855 3 | 15:18.06 | 6:13.53 | 68856 | 96883 4 | 21:31.59 | 6:47.56 | 96884 | 127464 5 | 28:19.40 | 5:55.27 | 127465 | 154116 6 | 34:14.67 | 4:01.23 | 154117 | 172214 7 | 38:16.15 | 8:29.17 | 172215 | 210406 8 | 46:45.32 | 5:00.17 | 210407 | 232923 9 | 51:45.49 | 8:28.73 | 232924 | 271096 10 | 60:14.47 | 6:41.01 | 271097 | 301172
Range status and errors
Selected range
Filename C:\darkbrides\Swallow the Sun - Emerald Forest and the Blackbird.wav
Peak level 100.0 % Extraction speed 8.8 X Range quality 100.0 % Test CRC B7DF8414 Copy CRC B7DF8414 Copy OK
No errors occurred
AccurateRip summary
Track 1 accurately ripped (confidence 34) [510C99A9] (AR v2)Track 2 accurately ripped (confidence 34) [49290D53] (AR v2)Track 3 accurately ripped (confidence 34) [BF0D5028] (AR v2)Track 4 accurately ripped (confidence 34) [F8607AE1] (AR v2)Track 5 accurately ripped (confidence 35) [3264CB31] (AR v2)Track 6 accurately ripped (confidence 34) [DBCAFE65] (AR v2)Track 7 accurately ripped (confidence 35) [3EC4EACF] (AR v2)Track 8 accurately ripped (confidence 35) [C3856AC0] (AR v2)Track 9 accurately ripped (confidence 35) [B2ADAEF7] (AR v2)Track 10 accurately ripped (confidence 35) [456D5991] (AR v2)
All tracks accurately ripped
End of status report
==== Log checksum 5D59B576D05C83DEF8A1E89C862F52C9150FC515F806A2F40B71E11B3D334456 ====
-

Яндекс.Метрика
Рейтинг@Mail.ru