(Italo-Disco) Sabrina (Salerno) - Boys - 2000, FLAC (image+.cue), lossless

 

Создавать темы 27-Июн-2014 06:06

--Sabrina - Boys-- Жанр: Italo-Disco
Год выпуска диска: 2000
Производитель диска: Germany
Аудио кодек: FLAC
Тип рипа: image+.cue
Битрейт аудио: lossless
Продолжительность: 00:57:34
Трэклист:
01. Like A Yoyo 3:27
02. All Of Me 3:46
03. Doctor's Orders 3:17
04. Boys 3:53
05. Funky Girl 3:47
06. My Chico 3:38
07. Pirate Of Love 3:56
08. Sexy Girl 3:39
09. Guys And Dolls 3:48
10. Sex 4:09
11. My Chico (Remix) 5:11
12. Sexy Girl (Remix) 5:03
13. Boys (Remix) 5:34
14. The Key Of Sex (Remix) 4:27

Back

Отчёт EAC

Exact Audio Copy V0.99 prebeta 5 from 4. May 2009
Отчёт EAC об извлечении, выполненном 15. марта 2010, 13:09
Sabrina / Boys
Дисковод: Optiarc DVD RW AD-5200A Adapter: 0 ID: 0
Режим чтения : Достоверность
Использование точного потока : Да
Отключение кэша аудио : Да
Использование указателей C2 : Нет
Коррекция смещения при чтении : 48
Способность читать области Lead-in и Lead-out : Нет
Заполнение пропущенных сэмплов тишиной : Да
Удаление блоков с тишиной в начале и конце : Нет
При вычислениях CRC использовались нулевые сэмплы : Да
Интерфейс : Встроенный Win32-интерфейс для Win NT/2000
Выходной формат : Внутренние WAV-операции
Формат сэмплов : 44.100 Гц; 16 бит; стерео
TOC извлечённого CD
Трек | Старт | Длительность | Начальный сектор | Конечный сектор
---------------------------------------------------------------------
1 | 0:00.00 | 3:26.48 | 0 | 15497
2 | 3:26.48 | 3:46.01 | 15498 | 32448
3 | 7:12.49 | 3:17.10 | 32449 | 47233
4 | 10:29.59 | 3:53.07 | 47234 | 64715
5 | 14:22.66 | 3:47.20 | 64716 | 81760
6 | 18:10.11 | 3:37.57 | 81761 | 98092
7 | 21:47.68 | 3:55.69 | 98093 | 115786
8 | 25:43.62 | 3:38.56 | 115787 | 132192
9 | 29:22.43 | 3:47.58 | 132193 | 149275
10 | 33:10.26 | 4:09.15 | 149276 | 167965
11 | 37:19.41 | 5:10.62 | 167966 | 191277
12 | 42:30.28 | 5:03.08 | 191278 | 214010
13 | 47:33.36 | 5:34.06 | 214011 | 239066
14 | 53:07.42 | 4:26.55 | 239067 | 259071
Характеристики диапазона извлечения и сообщения об ошибках
Выбранный диапазон
Имя файла H:\All\Music\Sabrina - Boys\Sabrina - Boys.wav
Пиковый уровень 62.6 %
Качество диапазона 100.0 %
CRC теста AA53B694
CRC копии AA53B694
Копирование... OK
Ошибок не произошло
AccurateRip: сводка
Трек 1 нет в базе данных
Трек 2 нет в базе данных
Трек 3 нет в базе данных
Трек 4 нет в базе данных
Трек 5 нет в базе данных
Трек 6 нет в базе данных
Трек 7 нет в базе данных
Трек 8 нет в базе данных
Трек 9 нет в базе данных
Трек 10 нет в базе данных
Трек 11 нет в базе данных
Трек 12 нет в базе данных
Трек 13 нет в базе данных
Трек 14 нет в базе данных
Ни одного трека нет в базе AccurateRip
Конец отчёта
Яндекс.Метрика
Рейтинг@Mail.ru