Оборотень / Wer (Уильям Брент Белл / William Brent Bell) [2013, ужасы, триллер, детектив, HDRip] VO (datynet)

 

Создавать темы 26-Июн-2014 11:58

Оборотень / Wer- Год выпуска: 2013
Производство: США / FilmDistrict, Prototype, Room 101, Sierra Pictures
Жанр: ужасы, триллер, детектив
Режиссер: Уильям Брент Белл / William Brent Bell
Сценарий: Уильям Брент Белл, Мэттью Питерман
Продюсер: Николас Мейер, Моррис Полсон, Мэттью Питерман
Актеры: А. Дж. Кук, Брайан Скотт О'Коннор, Себастьян Роше, Саймон Куотерман, Вик Сахай, Стефани Николь Лемелин, Окли Пендергаст, Брайан Джонсон, Камелиа Максим, Коллин Джей Блэр
Описание фильма:
Адвокат начинает подозревать, что ее клиент, который обвиняется в убийстве семьи, может быть еще более страшным, чем кажется на первый взгляд. Прямо в полицейском участке арестант превращается в оборотня…
Перевод: одноголосый закадровый, любительский
Озвучка: datynet
Автор перевода: Janetta
Субтитры: отсутствуют

Ограничения по возрасту: 16+ (зрителям, достигшим 16 лет)
Рейтинг MPAA: R (лицам до 17 лет обязательно присутствие взрослого)
Дата мировой премьеры: 16 ноября 2013
Дата российской премьеры: 19 июня 2014, «Top Film Distribution»
Продолжительность: 01:29:08
Качество видео: HDRip
Видеокодек: XviD
Битрейт видео: ~1499 kbps
Размер кадра: 720x400
Аудиокодек: mp3, 2 ch
Битрейт аудио: 192 kbps, 48kHz

Трейлер

MediaInfo

Общее
Полное имя                               : Wer.2013.HDRip.avi
Формат                                   : AVI
Формат/Информация                        : Audio Video Interleave
Размер файла                             : 1,06 Гбайт
Продолжительность                        : 1 ч. 29 м.
Общий поток                              : 1701 Кбит/сек
[br]
Видео
Идентификатор                            : 0
Формат                                   : MPEG-4 Visual
Профиль формата                          : [email protected]
Параметр BVOP формата                    : Нет
Параметр QPel формата                    : Нет
Параметр GMC формата                     : Без точки перехода
Параметр матрицы формата                 : Default (H.263)
Идентификатор кодека                     : XVID
Идентификатор кодека/Подсказка           : XviD
Продолжительность                        : 1 ч. 29 м.
Битрейт                                  : 1499 Кбит/сек
Ширина                                   : 720 пикселей
Высота                                   : 400 пикселей
Соотношение сторон                       : 16:9
Частота кадров                           : 25,000 кадров/сек
Цветовое пространство                    : YUV
Субдискретизация насыщенности            : 4:2:0
Битовая глубина                          : 8 бит
Тип развёртки                            : Прогрессивная
Метод сжатия                             : С потерями
Бит/(Пиксели*Кадры)                      : 0.208
Размер потока                            : 956 Мбайт (88%)
Библиотека кодирования                   : Lavc55.55.104
[br]
Аудио
Идентификатор                            : 1
Формат                                   : MPEG Audio
Версия формата                           : Version 1
Профиль формата                          : Layer 3
Идентификатор кодека                     : 55
Идентификатор кодека/Подсказка           : MP3
Продолжительность                        : 1 ч. 29 м.
Вид битрейта                             : Постоянный
Битрейт                                  : 192 Кбит/сек
Каналы                                   : 2 канала
Частота                                  : 44,1 КГц
Метод сжатия                             : С потерями
Размер потока                            : 122 Мбайт (11%)
Выравнивание                             : Разделение по промежуткам
Продолжительность промежутка             : 40  мс. (1,00 видеокадр)
Время предзагрузки промежутка            : 500  мс.
Скриншоты:


Яндекс.Метрика
Рейтинг@Mail.ru