Top Gear / Топ Гир / Сезон: 21 / Серии: 1-7 (7) / BBC [2014, Великобритания, Автопередача, HDTVRip/720p] MVO (IdeaFilm)

 

Создавать темы 26-Июн-2014 07:54

-Топ Гир / Top Gear 21 сезон-- Год выпуска: 2014 г.
Страна: Великобритания
Жанр: Автопередача
Перевод: Профессиональный (многоголосый закадровый) - IdeaFilm
Ведущие: Джереми Кларксон, Ричард Хаммонд, Джеймс Мэй и Стиг
Продолжительность: 01:00:00
Описание: Top Gear — популярная английская телепередача, посвящённая автомобилям. Первые выпуски передачи вышли в 1977 году. Это была передача в формате тележурнала, который в течение долгого времени не менялся. В 2002 году произошёл перезапуск цикла, в результате которого появился современный «Top Gear» — с юмором, приколами и фирменными тестами. Передачу стали вести Джереми Кларксон, Ричард Хаммонд, Джеймс Мэй и суперсекретный водитель-испытатель по прозвищу Стиг. Аудитория программ в странах официальной трансляции составляет около 350 миллионов человек.-Качество видео: HDTVRip
Контейнер: MKV
Видео кодек: H.264
Аудио кодек: AC3
Видео: 1280x720 (1.80:1), 25 fps, MPEG4 Video (H264), ~3087 kbps, 0.134 Bits/(Pixel*Frame)
Аудио: 48 kHz, AC3 Dolby Digital, 2/0 (L,R) ch, ~192 kbps [RUS]
Аудио 2: 48 kHz, AC3 Dolby Digital, 2/0 (L,R) ch, ~192 kbps [ENG]

Media info

Имя файла: Top Gear S21E01 HDTVRip 720p Rus [IdeaFilm].mkv
Формат файла: .mkv (Matroska)
Размер файла: 1.53 GB
Длительность: 1h 1mn
Навигация по главам: Нет
Битрейт (все потоки): 3 542 Kbps
Файл создан: UTC 2014-02-06 21:48:27
Создан при помощи: mkvmerge v6.7.0 ('Back to the Ground') 32bit built on Jan 8 2014 15:03:17
Использовалась библиотека: libebml v1.3.0 + libmatroska v1.4.1
Обложка: Отсутствует
Название: Top Gear S21E01 HDTVRip 720p Rus [IdeaFilm]
Тип потока: Видео
Длительность: 01:01:59
Кодек: AVC
Кодек/описание: Advanced Video Codec
Кодек/профиль: [email protected]
Кодек/ID: V_MPEG4/ISO/AVC
Кодек/CABAC: Yes
Кодек/ReFrames: 5 frames
Размеры изображения: 1280 x 720 (16:9)
Частота кадров: 25.000 fps
Частота кадров/тип: Constant
Размер потока: 1.34 GiB (87%)
Битрейт: 3 087 Kbps
Библиотека кодирования: x264 core 142 r2389 956c8d8
Цветовое пространство: YUV
Тип развёртки: Progressive
Глубина: 8 bits
Настройки кодирования: cabac=1 / ref=5 / deblock=1:0:0 / analyse=0x3:0x113 / me=umh / subme=8 / psy=1 / psy_rd=1.00:0.00 / mixed_ref=1 / me_range=16 / chroma_me=1 / trellis=1 / 8x8dct=1 / cqm=0 / deadzone=21,11 / fast_pskip=1 / chroma_qp_offset=-2 / threads=12 / lookahead_threads=2 / sliced_threads=0 / nr=0 / decimate=1 / interlaced=0 / bluray_compat=0 / constrained_intra=0 / bframes=3 / b_pyramid=2 / b_adapt=2 / b_bias=0 / direct=3 / weightb=1 / open_gop=0 / weightp=2 / keyint=250 / keyint_min=25 / scenecut=40 / intra_refresh=0 / rc_lookahead=50 / rc=crf / mbtree=1 / crf=21.0 / qcomp=0.60 / qpmin=0 / qpmax=69 / qpstep=4 / ip_ratio=1.40 / aq=1:1.00
Тип потока: Звук #1
Язык: Russian
Название: IdeaFilm
Длительность: 01:01:59.840
Кодек: AC-3
Кодек/описание: Audio Coding 3
Кодек/ID: A_AC3
Частота дискретизации: 48.0 KHz
Каналов: 2 channels
Битрейт: 192 Kbps
Битрейт/тип: Constant
Размер потока: 85.1 MiB (5%)
Глубина: 16 bits
Метод сжатия: Lossy
Тип потока: Звук #2
Язык: English
Название: English
Длительность: 01:01:59.840
Кодек: AC-3
Кодек/описание: Audio Coding 3
Кодек/ID: A_AC3
Частота дискретизации: 48.0 KHz
Каналов: 2 channels
Битрейт: 192 Kbps
Битрейт/тип: Constant
Размер потока: 85.1 MiB (5%)
Глубина: 16 bits
Метод сжатия: Lossy

Скриншоты

Торрент обновлен, добавлена 7ая, финальная серия
Яндекс.Метрика
Рейтинг@Mail.ru